<?xml version="1.0" standalone="no"?>
<!DOCTYPE svg PUBLIC "-//W3C//DTD SVG 1.1//EN" "http://www.w3.org/Graphics/SVG/1.1/DTD/svg11.dtd" >
<svg xmlns="http://www.w3.org/2000/svg" xmlns:xlink="http://www.w3.org/1999/xlink" version="1.1">
<metadata></metadata>
<defs>
<font id="amertype_md_btmedium" horiz-adv-x="1024" >
<font-face units-per-em="2048" ascent="1638" descent="-410" />
<missing-glyph horiz-adv-x="645" />
<glyph unicode="&#xd;" horiz-adv-x="645" />
<glyph horiz-adv-x="0" />
<glyph horiz-adv-x="0" />
<glyph horiz-adv-x="0" />
<glyph unicode="&#x9;" horiz-adv-x="645" />
<glyph unicode=" "  horiz-adv-x="645" />
<glyph unicode="&#x09;" horiz-adv-x="645" />
<glyph unicode="&#xa0;" horiz-adv-x="645" />
<glyph unicode="!" horiz-adv-x="645" d="M126 1234v12q-6 74 34 94.5t107 20.5q229 215 217 35t-75 -150v-12l-177 -34q256 -144 171.5 -515t-123.5 -405q-66 34 -5 301t29 387zM199 92q-55 92 7.5 107.5t97.5 -47.5q144 72 143 31t57 -63q-58 -80 -94.5 -116.5t-87.5 -36.5q-52 0 -87.5 36.5t-35.5 88.5z" />
<glyph unicode="&#x22;" horiz-adv-x="590" d="M88 1120l6 314h117v-553zM377 881v553h119l-16 -322z" />
<glyph unicode="#" horiz-adv-x="1575" d="M104 467l43 123h320l96 272h-342l43 123l264 135l248 336h146l-166 -471h260l168 471h143l-87 -384l230 -87l-43 -123h-311l-94 -272h330l-43 -123l-285 -75l-213 -394h-145l168 469h-265l-168 -469h-143l110 418zM614 590h263l96 272h-264z" />
<glyph unicode="$" horiz-adv-x="1290" d="M182 229.5q14 125.5 14 261.5q0 77 37.5 122.5t99.5 45.5q47 0 78 -28.5t31 -71.5q0 -22 -8.5 -39t-24.5 -29q-12 -7 -35 -16q-29 -10 -29 -25q0 -58 55.5 -104t143.5 -57v477q-142 35 -213.5 109t-71.5 186q0 123 75.5 212t205.5 118v155q0 48 9.5 63t33.5 15 q25 0 36 -18.5t11 -59.5v-139q23 2 38 3t28 1q12 0 28.5 -1t48.5 -3v139q0 46 10 62t35 16q24 0 34.5 -18t10.5 -60v-151q97 357 175.5 91.5t78.5 -356.5q0 -51 -27 -82.5t-71 -31.5q-42 0 -67 19.5t-25 51.5q0 30 20.5 56.5t20.5 34.5q0 28 -37.5 57.5t-89.5 36.5v-416 q152 -23 236.5 -112.5t84.5 -227.5q0 -132 -79.5 -227.5t-219.5 -130.5v-158q0 -48 -9 -63t-34 -15q-24 0 -35.5 18.5t-11.5 59.5v143q-12 0 -37.5 -1t-37.5 -1q-13 0 -35.5 1t-32.5 1v-143q0 -46 21 -83t-66 5q-24 0 -92.5 -161t47.5 239v151q-372 -47 -358 78.5zM383 999 q0 -66 28.5 -103t92.5 -52v332q-57 -13 -89 -59.5t-32 -117.5zM575 190h6q48 -4 72 -4q23 0 46 1.5t48 4.5l1 433q-31 6 -90 18t-82 16zM655 821q26 -12 79 -30q8 -3 13 -4v409q-10 3 -19.5 4.5t-20.5 1.5q-12 0 -25 -2.5t-27 -7.5v-371zM809 207q79 6 126.5 61t47.5 142 q0 85 -42.5 133t-131.5 63v-399z" />
<glyph unicode="%" horiz-adv-x="1735" d="M124 977q0 194 86 304.5t236 110.5q114 0 247 -99q24 -19 37 -28q78 -54 116.5 -70t78.5 -16q60 0 117.5 30t-50.5 87q24 120 190 52q54 85 105 85q27 0 43.5 -10.5t16.5 -26.5q0 -7 -1 -10.5t-4 -8.5l-731 -1373q-14 -28 -29 -35.5t-50 -7.5q-25 0 -39.5 10t-14.5 27 q0 4 5 16.5t-11 233.5l592 868q-38 -28 -78 -40.5t-88 -12.5q-36 0 -74.5 18.5t-72.5 52.5q8 -41 12 -79t4 -72q0 -198 -86 -310t-238 -112q-148 0 -219.5 -76.5t-99.5 492.5zM233 963q0 -129 47.5 -203t129.5 -74t130 74t48 203q0 128 -48 201t-130 73t-129.5 -73 t-47.5 -201zM1012 387q0 194 82 415.5t239 0.5q149 0 235.5 -111.5t86.5 -304.5t-87 -304.5t-237 -111.5q-148 0 -233.5 111.5t-85.5 304.5zM1161 383q0 -128 45.5 -201t124.5 -73q80 0 126 73t46 201q0 130 -45 203t-125 73t-126 -73.5t-46 -202.5z" />
<glyph unicode="&#x26;" horiz-adv-x="1636" d="M84 469q0 161 92.5 277t235.5 135q-60 35 -90.5 92t-30.5 133q0 133 83 211t146 243q198 -165 268 -225t70 -161q0 -70 -39.5 -113t-103.5 -43q-44 0 -70.5 22t-26.5 60q0 32 21.5 54t52.5 22q9 -1 17.5 -2.5t15.5 -3.5q-11 45 -44 70.5t-83 25.5q-70 0 -113 -50 t-43 -133q0 -59 24 -97.5t71 -53.5q11 -4 37 -9q69 -13 69 -61q0 -56 -104 -67q-26 -3 -39 -4q-109 -14 -171.5 -98t-62.5 -218q0 -159 115.5 -258.5t300.5 -99.5q202 0 326.5 102.5t124.5 267.5q0 105 -57 168.5t-150 63.5q-76 0 -119 -37.5t-43 -103.5q0 -47 24 -76 t62 -29h14q-4 11 -6 21.5t-2 21.5q0 30 18 48t48 18q40 0 59.5 -23t19.5 -72q0 -66 -48.5 -106.5t-129.5 -40.5q-94 0 -274.5 42t61.5 193q0 130 90.5 208.5t239.5 78.5q50 0 134.5 -9t117.5 -9q149 0 219 56t70 177q0 86 -40.5 132t-115.5 46q-58 0 -92.5 -30t-34.5 -80 q0 -6 1.5 -13.5t4.5 -16.5q6 3 16 10q38 26 62 26q36 0 56 -20.5t20 -57.5q0 -53 -37.5 -84t-103.5 -31q-71 0 -117.5 52.5t-46.5 132.5q0 105 71.5 172t184.5 67q148 0 195.5 77t119.5 -384q0 -161 -98.5 -253.5t-270.5 -92.5q-21 0 -44 1.5t-47 4.5q64 -38 97 -102.5 t33 -151.5q0 -71 -24.5 -141.5t-71.5 -134.5q-88 -119 -222.5 -178.5t-316.5 -59.5q-263 0 -465 36.5t-110 465.5z" />
<glyph unicode="'" horiz-adv-x="305" d="M94 881v553h117l-27 -330z" />
<glyph unicode="(" horiz-adv-x="1012" d="M32 520q130 225 224.5 417.5t279.5 510.5q90 -111 180 -69t124 42q16 0 25 -5.5t9 -16.5q0 -17 -70 -55.5t-128 -86.5q-173 -140 -267 -337t-94 -420q0 -204 90.5 -296t210.5 -413q76 -74 167 -126.5t91 -65.5q0 -11 -9 -17t-25 -6q-33 0 -123.5 43t-173.5 107 q-192 143 -286.5 336t-224.5 458z" />
<glyph unicode=")" horiz-adv-x="1012" d="M88 -385q0 16 69.5 54.5t126.5 86.5q172 140 264.5 338t30.5 418q62 207 -12.5 384.5t-222.5 325.5q-75 74 -165.5 126.5t-90.5 66.5q0 11 9 16.5t25 5.5q34 0 123 -42t172 -105q185 54 280.5 -237.5t95.5 -536.5t27.5 -252.5t-403.5 -521.5q-84 -64 -173 -107t-122 -43 q-16 0 -25 6t-9 17z" />
<glyph unicode="*" d="M188 1174q0 31 10 156.5t64 -77.5q35 0 74.5 -49.5t64.5 -68.5l64 -50l27 15l-13 82q-5 34 -25 80.5t-20 58.5q0 32 22 53t56 21t201 2.5t-127 -72.5q0 -13 -19 -59t-24 -84l-11 -82l25 -17l64 54q25 20 62.5 68t76.5 48q29 0 50 -24.5t21 -57.5q153 -227 -93 -69 q-56 -9 -85 -21l-78 -30l3 -31l77 -29q27 -10 81 -19q100 -16 100 -75q0 -31 -23.5 -55.5t-116.5 -193.5q31 169 -7.5 218t-65.5 70l-64 49l-27 -14l13 -83q5 -38 24 -84.5t19 -53.5q0 -32 -21 -52t-55 -20t-105 5t31 62q0 14 19 60.5t24 82.5l11 83l-27 14l-64 -51 q-27 -22 -64 -69.5t-75 -47.5q-29 0 -50.5 25t-21.5 57q-94 173 95 69q58 10 86 21l75 31v31l-75 30q-25 10 -51.5 15.5t-47.5 5.5q-37 0 -60.5 20.5t-23.5 51.5z" />
<glyph unicode="+" horiz-adv-x="1706" d="M254 553v117l498 50l43 501h118l55 -477l484 -74v-117l-484 55l40 -592l-213 -16l-3 600z" />
<glyph unicode="," horiz-adv-x="645" d="M144 -224q83 -61 145.5 23t62.5 166v4h-20q-67 0 -102 29t-35 84q0 57 35 92t94 35q69 0 124.5 -20.5t22.5 -182.5q0 -58 -14.5 -111t-44.5 -106q-39 -67 -74 -102t-64 -35q-18 0 -32.5 14t-97.5 110z" />
<glyph unicode="-" horiz-adv-x="674" d="M56 488q48 63 60 135.5t52 -37.5h364q34 0 49 -17.5t51 -160.5q-36 66 -134 -11t34 41h-364q-33 0 -48.5 17.5t-63.5 32.5z" />
<glyph unicode="." horiz-adv-x="645" d="M199 92q17 52 43.5 87.5t79.5 35.5q14 -79 69 -75t55 -48q0 -50 -36.5 -86.5t-87.5 -36.5q-26 79 -74.5 75t-48.5 48z" />
<glyph unicode="/" horiz-adv-x="563" d="M-88 -94q75 84 67 -39l417 1327q12 41 25.5 53t5.5 97q56 -85 66 -93.5t10 -28.5q0 -11 -7 -34q104 -87 -7 -19l-151 -296q-278 -1069 -291.5 -1080.5t-37.5 -11.5q-23 0 -32 7.5t-9 26.5q0 12 -56 91z" />
<glyph unicode="0" horiz-adv-x="1290" d="M98 676q0 328 71 386t476 318q252 0 398.5 -189t146.5 -515q-94 -212 -193.5 -458.5t-353.5 -246.5q-253 0 -399 188.5t-146 516.5zM280 704q-8 -292 91 -441.5t272 -149.5q309 23 289 387t84 176q0 264 -98.5 412.5t-272.5 148.5q-173 0 -201 -498.5t-164 -34.5z" />
<glyph unicode="1" horiz-adv-x="1290" d="M238 105q0 40 27 62t75 22q20 131 54 61.5t49 -69.5q63 0 87.5 28t93.5 607l-69 326q0 79 -23 106t-100 -248q-3 275 -36 271t-50 -4q-40 0 -25 -193.5t-54 258.5q0 33 23.5 52.5t64.5 19.5q21 0 65.5 -5t67.5 -5q43 0 101.5 5t74.5 5q48 0 61 -14t13 -60q0 -3 -1 -18 q-3 -72 -3 -142l34 -98q-34 -832 -9.5 -861.5t87.5 -29.5q24 0 57 45.5t64 -37.5q42 0 62 -16.5t20 -52.5q0 -41 -24 -60.5t-72 -19.5q-11 0 -53 4q-84 -156 -265 12q-126 0 -264 -13q-35 -3 -45 -3q-41 0 -64.5 17.5t-23.5 47.5z" />
<glyph unicode="2" horiz-adv-x="1290" d="M21 30q85 62 85 158q0 135 88.5 254t239.5 189q82 37 230 88t204 82q48 26 75.5 75.5t27.5 110.5q0 116 -91.5 188t-240.5 72q-134 0 -226 -53t-92 -125q1 -17 5 -22.5t16 -6.5q3 0 10.5 2t11.5 2q25 0 43.5 -26t18.5 -64q494 -146 209 -133t-344 13q-64 0 -103 45 t-39 118q0 165 136 272t352 107q231 0 365 -106.5t134 -288.5q0 -76 -20.5 -136t-63.5 -106q-68 -71 -284 -143l-30 -10q-303 -102 -383.5 -164.5t-84.5 -152.5q41 44 96.5 67.5t122.5 23.5q49 0 99 -18t98 -53q14 -11 43 -33q-33 176 215 -113q59 0 94 35.5t35 95.5 q0 16 -3 22.5t-9 6.5q-5 0 -29.5 -10t-44.5 -10q-38 0 -61 23.5t-23 62.5q0 46 36 78t165 185q-2 -153 119 -260.5t-31 -109.5q80 -350 -36 -319.5t-228 30.5q-101 0 -227 89q-21 15 -31 22q-100 67 -157 91t-108 24t132 -107.5t-259 47.5q1 -2 11 -5q65 -19 65 -83 q-170 -363 -112 -220.5t14 142.5q-320 -5 -235 57z" />
<glyph unicode="3" horiz-adv-x="1290" d="M104 415q0 95 55.5 157t139.5 62q52 0 204.5 3t408.5 -125q-176 -112 -358.5 -97.5t-217.5 8.5q-8 -2 -20 -3q-40 -5 -40 -32q0 -88 98.5 -158.5t239.5 -70.5q182 0 287.5 91t105.5 249q0 128 -70 195t-206 67q-61 0 -128 -11.5t-73 -11.5q-25 0 -40 13t-15 34q0 15 8 30 t25 32l389 397l-385 -140q-72 -16 -60 -104t-60 -136q-75 257 -71 218t4 -57q0 -42 -17.5 -61t-55.5 -19q-35 0 -52.5 21.5t-17.5 64.5q0 14 5 68.5t5 93.5q0 14 -1 48.5t-1 53.5q0 65 19 83t80 18h731q76 0 102.5 -16t26.5 -56q0 -21 -9.5 -39.5t-37.5 -46.5l-355 -350h27 q192 0 265 40t138 -423q55 -473 -122 -479.5t-443 -6.5q-226 0 -319 22.5t-189 373.5z" />
<glyph unicode="4" horiz-adv-x="1290" d="M27 519q0 43 41 93q3 4 4 5l176 471q411 267 448 289.5t83 22.5q60 0 168.5 -308t-91.5 -276l38 -233h194q56 0 80.5 -16.5t24.5 -53.5q0 -39 -24.5 -56t-80.5 -17h-194v-170q0 -63 26 -89t86 -26q12 0 45 4t61 121q27 -117 47.5 -134t20.5 -44q0 -31 -21.5 -54.5 t-49.5 -23.5q-1 0 -107 8t-213 8t-230 -13q-33 -3 -42 -3q-38 0 -61 17.5t-23 45.5q0 29 15.5 91t47.5 -15q24 0 58 -4t43 -4q71 0 99 25.5t28 91.5v168h-244q-224 176 -338.5 107t-114.5 -28zM240 736l540 -169v639z" />
<glyph unicode="5" horiz-adv-x="1290" d="M110 392q0 77 46.5 125.5t119.5 48.5q48 0 174 -115t-63 0q0 -28 86.5 -135.5t-146.5 57.5q-26 -10 -33 -17t-7 -18q0 -56 91 -107.5t216 -51.5q181 0 288 93t107 251q-261 -155 -220 85t-122 240q-70 0 -132 -19.5t-118 -59.5q-22 -16 267 -57q-384 -44 -416 -44 q-33 0 -51.5 24t-18.5 66q0 6 6.5 85.5t11.5 153.5l19 253q1 20 2 55q3 104 479 39l223 66q62 0 82.5 -6.5t198.5 12.5q-163 -60 -163 -122q1 -26 155 -166q-153 83 -146.5 35t6.5 -55q316 -220 140 -135.5t-203 84.5q-18 0 -32 9t-26 29q-4 8 -5 46t-9 62q-10 33 -36 46 t-289 -153l-178 166q-29 0 -40.5 -12t-13.5 -44l-22 -335q56 59 143.5 90t200.5 31q218 0 256 -164t221 -299q0 -223 -150 -358.5t-397 -135.5q-217 0 -359.5 103t-142.5 254z" />
<glyph unicode="6" horiz-adv-x="1290" d="M133 686q0 333 163.5 525.5t446.5 192.5q183 0 302.5 -81.5t119.5 -202.5q155 -400 38.5 -270t-179.5 130q-44 0 -74.5 29.5t-30.5 71.5q0 34 23.5 63.5t23.5 30.5q0 27 -70.5 59.5t-156.5 32.5q-235 21 -326.5 -130t-91.5 -396v-19q48 90 154 142.5t243 52.5 q223 0 240.5 -162.5t241.5 -298.5q0 -208 -142 -335.5t-374 -127.5q-332 215 -452 175t-99 518zM344 430q160 106 167.5 -106.5t166.5 -212.5t247.5 84t88.5 235q-126 -118 -151.5 101t-184.5 219t-246.5 -84t-87.5 -236z" />
<glyph unicode="7" horiz-adv-x="1290" d="M152 868q0 23 9 94t9 119q0 47 -9 117.5t-9 95.5q0 41 17.5 65.5t47.5 24.5q24 0 40.5 -18t16.5 -43v-55v-37q25 65 75.5 100t121.5 35q49 0 95 -16.5t118 -65.5q18 -12 51 -37q124 -90 195 -90q32 0 57 10.5t41 30.5q-45 13 -65.5 33t-20.5 51q0 41 29 66.5t76 25.5 q-23 242 50.5 74t73.5 -264q0 -104 -9.5 -244t-258.5 -180l-8 -7q-131 -111 -172 -206q-22 -51 139.5 -299t-186.5 28q0 -28 94 -124t-84 -35q0 -73 -25 -109.5t-75 -36.5q-62 0 -88.5 41.5t-26.5 139.5q0 169 47 310.5t144 260.5q65 79 188 181q19 16 29 24q3 3 13 11 q100 85 132 153q-44 -36 -85 -52t-89 -16q-57 0 -105.5 15t-216.5 -255q76 327 33 358q-95 68 -147 68q-58 0 -90.5 -36.5t-32.5 -102.5q181 -79 98.5 -127.5t-82.5 -75.5q0 -42 -18.5 -64t-55.5 -22q-44 0 -62.5 20t-18.5 66z" />
<glyph unicode="8" horiz-adv-x="1290" d="M100 408q100 80 128.5 205.5t174.5 162.5q-105 32 -155.5 96.5t-50.5 165.5q163 250 198 294t250 44q214 0 331.5 -89t23.5 -231q94 -119 43 -182.5t-158 -97.5q149 -38 164 -191t141 -184q0 -195 -148.5 -312.5t-396.5 -117.5q-293 117 -417 117t-128 320zM364 1047 q0 -89 75.5 -142t201.5 -53t200 52.5t-68 199.5q142 31 68 83t-200 52q-127 0 -202 -52.5t-75 -139.5zM379.5 202q98.5 -77 265.5 -77t313 89.5t-142 17.5q200 360 98 411t-269 51t-265.5 -77t172.5 -25q-271 -313 -172.5 -390z" />
<glyph unicode="9" horiz-adv-x="1290" d="M104 907q0 207 142 333t377 126q345 -302 446.5 -324t101.5 -345q85 -89 -121 -411.5t-485 -322.5q-186 0 -319.5 -21.5t-118.5 312.5q0 65 38 105.5t99 40.5q49 0 80 -28.5t31 -72.5q0 -43 -42 -84q-11 -11 -11 -14q0 -30 75 -66.5t170 -36.5q197 0 306.5 141t109.5 394 v6q-49 -91 -153 -141.5t-244 -50.5q-225 0 -257.5 128.5t-224.5 331.5zM276 915q164 189 170.5 -65t165.5 -254t246.5 84t87.5 235q-290 173 -232.5 246.5t-101.5 73.5t-247.5 -84t-88.5 -236z" />
<glyph unicode=":" horiz-adv-x="668" d="M211 96q0 52 70.5 50t52.5 73q52 0 87.5 -36t35.5 -89q0 -50 -36 -86.5t-87 -36.5q-52 0 -87.5 36.5t-35.5 88.5zM211 758q0 52 35.5 87.5t87.5 35.5t115 -20.5t8 -104.5q0 -51 -36 -87t-87 -36q-22 71 -72.5 71.5t-50.5 53.5z" />
<glyph unicode=";" horiz-adv-x="668" d="M136 -360q128 12 114 26t-14 31q-28 135 48 160.5t76 107.5v4h-20q-66 0 -99.5 28.5t-33.5 84.5q0 58 33.5 92.5t91.5 34.5q70 0 109.5 -54t39.5 -149q0 -56 -15 -109t-46 -108q-39 -67 -74 -102t-210 -47zM207 756q0 52 36 87.5t89 35.5q52 0 87.5 -35.5t35.5 -87.5 q0 -51 -36.5 -88t-98.5 44q-40 -81 -76.5 -45t-36.5 89z" />
<glyph unicode="&#x3c;" horiz-adv-x="1706" d="M264 662l1178 483l86 -233l-1086 -302l1054 -250l-54 -284l-898 356z" />
<glyph unicode="=" horiz-adv-x="1706" d="M254 501h1198v-141l-804 8zM254 743v117l314 12l884 -129h-1198z" />
<glyph unicode="&#x3e;" horiz-adv-x="1706" d="M264 76l40 236l960 298l-960 214l-40 321l1178 -483l-370 -302z" />
<glyph unicode="?" horiz-adv-x="1124" d="M76 1022q0 163 136.5 268t354.5 105q81 213 279 6.5t198 -375.5q0 -79 -25 -141t-73 -103q-58 -446 -174.5 -306.5t-127.5 131.5q-47 -35 -64.5 -66.5t-22.5 -90.5v-7q-7 -107 -76 -107q-36 0 -57 24t-21 66q0 105 32.5 167.5t121.5 121.5q42 27 121.5 71t107.5 66 q53 44 74 83t21 91q0 111 -87.5 176.5t-238.5 65.5q-144 0 -239 -68t-95 -168q0 -28 10 -46t29 -25q10 32 31.5 48.5t54.5 16.5q37 0 165.5 31t-81.5 -111q0 -62 -46.5 -104.5t-115.5 -42.5q-132 -175 -162 -26t-30 249zM349 -6.5q-101 22.5 30 100.5q0 51 36 87t87 36 q26 -73 74.5 -72t143.5 -153q-95 50 -130.5 14.5t-87.5 -35.5t-153 22.5z" />
<glyph unicode="@" horiz-adv-x="2048" d="M113 522q0 163 50.5 309t149.5 269q146 176 349.5 267t453.5 91q165 0 311 -43.5t248 -124.5q129 -99 195.5 -230t66.5 -282q0 -169 -62.5 -308.5t-182.5 -236.5q-69 -55 -148.5 -83.5t-163.5 -28.5q-99 0 -148.5 39t-49.5 116q0 3 1 11t1 12q-51 -87 -127 -132.5 t-170 -45.5q-153 0 -233.5 85t-80.5 247q0 230 113.5 396.5t355.5 151.5q91 0 153.5 -39.5t96.5 -117.5l58 121h110l-141 -568q-6 -24 -9 -44t-3 -36q0 -44 27.5 -67t82.5 -23q45 0 100 24t103 64q89 76 139.5 196.5t-191.5 -143.5q336 456 93.5 722t-565.5 266 q-168 0 -404 -302t-168 97q-108 -167 -195 -305t-87 -332q0 -173 60.5 -304t105.5 182q182 -493 321 -536.5t295 -43.5q16 180 256.5 138.5t374.5 49.5l45 -66q-147 -109 -313 -165t-347 -56q-191 0 -348 46.5t-276 138.5q-153 117 -228 272t-75 352zM713 446 q0 -110 51 -169.5t145 -59.5q102 0 183.5 70.5t109.5 185.5l60 242q-17 90 -72 140t-135 50q-191 -465 -266.5 -364t-75.5 -95z" />
<glyph unicode="A" horiz-adv-x="1464" d="M-56 93q0 30 21 52t47 22q13 0 35 -4t30 -4q71 0 104 27.5t243 693.5l188 405q29 75 59 101t78 26q57 0 58 -182t361 -550l87 -392q53 110 76 110q18 0 19 -66v-8q0 -7 -1 -14q0 -151 56 -151q7 0 21 4t20 4q62 0 84 -17t22 -57q0 -31 -26 -52t-64 -21q-12 0 -54 2 q-155 10 -290 10q-56 0 -125 -6t-82 -6q-39 0 -58.5 19t-19.5 56q0 35 22 53q11 9 11 55q0 43 -10 117q74 -153 108.5 -157t55.5 -4q26 0 42.5 18t16.5 48q0 16 -3 33.5t-9 33.5l-53 163q-10 28 -30 46q-4 3 -13 3q-46 0 -235 -72l-194 87q-21 0 -35.5 -15t-25.5 -48 l23 -208q-45 13 -68 13q-20 0 -21 -10q-4 -22 -4 -43q0 -20 19.5 -34.5t48.5 -14.5q22 0 57 4t72 181q20 -177 42.5 -195.5t22.5 -53.5q0 -37 -20.5 -56t-61.5 -19q-13 0 -86 6t-133 6q-130 -83 -205 -83q-33 0 -57 17q-74 54 -76 54q-38 0 -64 21t-26 52zM553 637 q0 -12 9 -16.5t40 -4.5h262q29 1 38 5.5t9 17.5q1 7 -75 104q-26 34 -27 36q0 5 94 -101l-239 514l-101 -514q-7 -21 -8.5 -28.5t-1.5 -12.5z" />
<glyph unicode="B" horiz-adv-x="1417" d="M59 116q0 32 20 49.5t56 17.5q15 0 53 -6t59 -6q34 0 34 13q0 12 -23 30q-12 11 -12 22q0 36 112 84l-110 344q89 461 89 570q0 26 -5 32q-26 32 -77 31q-28 0 -68.5 -6t-51.5 -6q-36 0 -56 18t-20 50q0 39 21 58t65 19q18 0 106 -9t156 -9q73 0 209.5 9t200.5 9 q228 0 344 -87t116 -259q0 -111 -59.5 -183.5t-171.5 -96.5q140 -34 215.5 -128.5t75.5 -236.5q-1 -189 31 -270q2 -4 2 -8q0 -75 -555 -123q-53 0 -181 9h-7q-123 0 -195 -327q-85 327 -177 327h-5q-95 -9 -105 -9q-44 0 -65 19t-21 59zM506 258q0 -81 48.5 -108t219.5 -27 q179 -1 269 69q21 16 21 48q0 104 -232 376q155 -36 204 -36q23 0 23 8t-24 24q-98 66 -318 66q-140 0 -175.5 -23.5t-35.5 -101.5v-295zM506 1139l126 -131q-100 -134 -100 -170q0 -10 8 -13q34 -14 107 -14q89 0 150 4.5t105 14.5q73 16 121 78q8 11 8 21q0 46 -191 63 q170 121 170 178q0 20 -21 32q-82 46 -270 47q-139 0 -176 -22.5t-37 -87.5z" />
<glyph unicode="C" horiz-adv-x="1319" d="M86 682q0 326 165 519.5t441 193.5q118 0 215.5 -40.5t159.5 -115.5v43q0 58 14 79t49 21t51.5 -16.5t16.5 -50.5q0 -7 122 -99q3 -22 3 -42q0 -131 -139 -160q0 -29 7 -79t7 -73q0 -50 -16 -70t-56 -20q-39 0 -56 25.5t-17 85.5l-261 -179q192 272 192 395q0 45 -26 69 q-94 92 -241 92q-201 0 -319.5 -153.5t-118.5 -414.5q160 145 199 145q13 0 14 -16q0 -30 -48 -117q-39 -71 -39 -146q0 -209 308 -443q131 0 219 56t131 169q14 36 22.5 96t12.5 77q5 20 23.5 33t43.5 13q38 0 59 -26.5t21 -75.5q12 -93 12 -166q0 -245 -131 -277 q-170 -42 -415 -43q-291 0 -458 190.5t-167 520.5z" />
<glyph unicode="D" horiz-adv-x="1503" d="M26 1114q10 146 9 178q0 39 21.5 57.5t66.5 18.5q23 0 72.5 -5t76.5 -5q3 0 13 -1q51 -3 100 -3q76 0 202.5 7t176.5 7q325 0 490 -173t165 -513q0 -332 -171.5 -516t-481.5 -184q-72 0 -203 -87q-41 -27 -70 -27q-65 0 -75 134q-62 0 -158.5 -10t-130.5 -10 q-48 0 -71 17t-23 52q1 35 11 152q4 44 14 44q18 0 55 -118q15 0 52 -6t58 -6q59 0 85 30q4 5 4 25q0 105 -114 628l136 312q0 67 -26 93q-3 3 -7 3q-30 0 -111 -152q3 41 3 71q0 98 -26 98h-3q-36 -6 -53 -6q-61 -159 -80 -159q-8 0 -8 31q0 10 1 23zM360 696 q150 -516 187 -539.5t188 -23.5q254 -1 379 141q27 30 27 45q0 14 -24 14q-69 0 -341 -117q361 610 361 824q0 60 -29 89q-131 130 -428 130q-113 0 -141.5 -23t-28.5 -143v-22z" />
<glyph unicode="E" horiz-adv-x="1436" d="M41 68q0 32 20.5 52.5t53.5 20.5q15 0 50.5 -4t55.5 -4q-63 74 -63 99q0 13 16 13q15 -1 44 -11q8 -3 14 -2q28 0 28 55q0 132 -156 577l236 260q0 62 -26.5 90.5t-84.5 28.5q-21 0 -59 -7t-53 -7q-33 0 -54.5 21t-21.5 53q0 37 22 55t66 18q27 0 122.5 -6t162.5 -6h114 h426q108 0 203 11q12 1 14 1q44 0 70.5 -27.5t26.5 -74.5l-7 -84q0 -41 134 -41q37 0 85 3q-219 -104 -219 -178l7 -93q0 -40 -18.5 -63t-49.5 -23q-33 0 -56.5 26t-23.5 64q0 18 5 74.5t5 93.5q0 103 -38.5 139.5t-161.5 36.5h-303q-71 0 -93 -26t-22 -111l-128 -124 q128 -152 148 -169t72 -17q138 0 177.5 24t39.5 103q0 14 -2 50.5t-2 58.5q0 35 19 57.5t49 22.5q31 0 47 -31t16 -90l-6 -107q0 -77 218 -118q-161 -54 -161 -91q0 -15 25 -27q31 -15 31 -36q0 -40 -107 -104q0 -58 -16.5 -89.5t-115.5 -92.5q27 41 27 63q-1 11 -7 18 q-20 20 -19 49q0 25 2 55.5t2 34.5q0 104 -35 129t-190 25q-48 0 -174 45q-18 6 -31 6q-46 0 -46 -70q0 -58 31 -163l136 -230q0 -91 23 -116t92 -25h329q121 0 161 37.5t40 142.5q0 37 -6 93t-6 75q0 38 23.5 64t56.5 26q31 0 50 -23.5t19 -62.5q0 -14 -6 -89t-6 -136 q0 -31 6 -87t144 -85q-138 -42 -165 -70t-71 -28q-3 0 -14 1q-94 9 -201 9h-578q-111 0 -234 -8q-32 -2 -40 -2q-46 0 -67 18.5t-21 59.5z" />
<glyph unicode="F" horiz-adv-x="1337" d="M33 68q0 32 20.5 52.5t34.5 111.5q26 -91 64 -97t65 -6q64 0 89.5 29t25.5 106l-196 352q173 502 173 582q0 11 -3 14q-26 27 -85 27q-18 1 -68 -119q-17 -41 -26 -41q-14 0 -14 78q0 30 2 72q-38 0 -60 19.5t-22 51.5q0 34 26 55t70 21q5 0 30 -1q175 -9 361 -9h426 q108 0 203 9q12 1 14 1q44 0 70.5 -27.5t26.5 -74.5q0 -25 -6.5 -81t-6.5 -87q73 -29 73 -79q0 -21 -14 -47q-46 -84 -46 -99q0 -40 -18.5 -63t-49.5 -23q-33 0 -56.5 26t-23.5 64q0 18 5 74.5t5 93.5q0 103 -38.5 139.5t-161.5 36.5h-299q-69 0 -91 -23.5t-22 -113.5v-230 q0 -38 12.5 -54.5t40.5 -16.5h187q29 0 46 31.5t17 86.5q0 13 -2 48.5t-2 58.5q0 37 18.5 59.5t49.5 22.5t47 -31t16 -90q0 -23 -6 -103v-5q0 -78 154 -157q-107 -23 -107 -70q0 -24 27 -52q28 -30 28 -51q0 -39 -96 -45q0 -58 -17 -89.5t-46 -31.5t-48.5 20t-19.5 49 q0 25 2 55.5t2 34.5q0 91 -22 119.5t-86 28.5h-144q-27 0 -130 -8q-84 -6 -84 -92q0 -20 5 -44l158 -288q0 -63 27.5 -91t89.5 -28q22 0 62.5 6t58.5 6q36 0 59 -20.5t23 -52.5q-40 3 -68 3q-69 0 -70 -16q0 -8 20 -20q43 -27 43 -38q0 -7 -20 -7q-37 0 -139 8h-10 q-95 0 -138 -142q-91 142 -189 142h-10q-103 -8 -128 -8q-47 0 -67.5 18.5t-20.5 59.5z" />
<glyph unicode="G" horiz-adv-x="1509" d="M118 714q0 333 170 524t465 191q136 0 235.5 -39.5t169.5 -120.5v66q0 42 14.5 60.5t47.5 18.5q35 0 51 -18.5t16 -58.5q0 -6 -1 -28q-7 -106 -7 -208q0 -75 7 -156q1 -19 1 -24q0 -40 -17 -59t-54 -19q-30 0 -45.5 13.5t-26.5 51.5q-2 9 -4.5 62.5t-13.5 93.5 q-19 60 -109 60q-80 0 -216 -47q-69 -24 -107 -24q-47 0 -47 36q0 58 120 209q-212 0 -334 -153.5t-122 -420.5q0 -274 114 -425.5t320 -151.5q189 0 290 95t101 273q0 25 -38 25q-52 0 -174 -46q-58 -21 -76 -21q-9 0 -9 5q0 22 188 148q-32 0 -75.5 -4t-55.5 -4 q-384 -101 -426 -101q-5 0 -5 2q0 6 80 35q265 98 265 137q0 34 24.5 50t74.5 16q23 0 126 -7t185 -7q69 0 145 7t82 7q42 0 64 -17t22 -49q0 -34 -18 -53.5t-83 -373.5q11 188 11 277q0 79 -9 81q-18 4 -24 4q-59 0 -81.5 -39t-22.5 -158q0 -100 12 -207t12 -114 q0 -35 -21 -58.5t-52 -23.5q-40 0 -59 18t-19 56q0 22 1 49t3 57q-67 -99 -179 -151t-261 -52q-291 0 -557 -29q-10 -2 -19 -2q-133 0 -133 230q0 183 84 512z" />
<glyph unicode="H" horiz-adv-x="1706" d="M73 100q0 33 20.5 53t55.5 20q11 0 51.5 -5t69.5 -5q52 1 77 29q3 4 3 11q0 51 -150 285l172 668q0 59 -24 87q-1 1 -3 1q-28 0 -169 -668q-100 50 -100 213q0 73 20 167q55 262 55 300q0 7 -2 7q-35 0 -55.5 20t-20.5 54q0 39 21 58t65 19q16 0 106.5 -9t165.5 -9 q70 0 165 9t120 9q50 0 79.5 -20t29.5 -53q0 -35 -20.5 -56.5t-51.5 -21.5q-18 0 -50.5 4t-45.5 4q-59 0 -82 -23.5t-23 -91.5v-325q61 -1 132 -1t268 -62q76 61 143 61.5t123 1.5v323q0 16 -14 16q-47 0 -251 -172q-82 -69 -98 -68q-4 0 -4 3q0 33 262 338q-13 0 -45.5 -4 t-50.5 -4q-32 0 -52 21t-20 55t29 54.5t78 20.5q25 0 121 -9t166 -9q75 0 165.5 9t106.5 9q44 0 66 -20t22 -59q0 -33 -21.5 -52.5t-56.5 -19.5q-15 0 -53 4t-59 4q193 -330 193 -373q0 -7 -4 -7q-15 -1 -83 77q-67 76 -100 77q-33 0 -33 -75q0 -96 54 -314l-138 -374 q0 -60 25.5 -89.5t76.5 -29.5q29 0 69.5 5t51.5 5q35 0 56.5 -19.5t21.5 -51.5q0 -40 -21.5 -60t-64.5 -20q-16 0 -107.5 10t-166.5 10q-70 0 -165 -10t-120 -10q-50 0 -79.5 20.5t-29.5 55.5q0 34 20 54.5t52 20.5q18 0 51.5 -5t46.5 -5q58 0 80.5 24.5t22.5 102.5l-1 389 q-83 3 -169 5h-1q-87 0 -527 -340q211 263 211 322q0 17 -17 18h-1q-81 -2 -161 -5v-399q0 -67 23.5 -92t81.5 -25q13 0 45.5 5t50.5 5q31 0 51.5 -21.5t20.5 -56.5q0 -33 -29.5 -53t-79.5 -20q-25 0 -120 10t-165 10q-75 0 -165.5 -10t-106.5 -10q-44 0 -65 19t-21 59z" />
<glyph unicode="I" horiz-adv-x="901" d="M67 76q1 32 15 190q5 57 14 58q17 0 47 -175q12 0 52.5 -7t68.5 -7q51 0 76.5 30t155.5 619l-130 348q0 8 -3 8q-17 0 -144 -352q-47 -129 -59 -128q-5 0 -5 17q0 83 109 574q-28 0 -68.5 -6t-52.5 -6q-34 0 -55 20t-21 54q0 39 21.5 58t64.5 19q5 0 108 -9t202 -9 q94 0 194 9t107 9q43 0 64.5 -19t21.5 -58q0 -33 -21.5 -53.5t-56.5 -20.5q-2 0 -2 -5q0 -32 74 -298q20 -71 20 -92q0 -9 -4 -8q-23 0 -209 415q-51 0 -75.5 -29t-24.5 -90l153 -500q-132 -378 -132 -452q0 -12 4 -16q24 -30 75 -29q25 111 50 111q11 0 23 -24 q36 -74 48 -73q53 153 71 153q10 0 10 -43v-9q-3 -142 -3 -174q0 -40 -21.5 -59t-64.5 -19q-4 0 -104.5 9t-196.5 9q-104 0 -206.5 -9t-103.5 -9q-43 0 -64.5 19t-21.5 59z" />
<glyph unicode="J" horiz-adv-x="1327" d="M47 379q0 126 82 214.5t199 88.5q84 0 138 -49t294 -209q-119 16 -186 16q-69 0 -84 -16q-29 -33 -78 -33q-46 0 -70.5 25.5t-24.5 72.5q0 21 14 44q3 5 3 6t-1.5 2.5t-2.5 1.5q-51 0 -87 -45t-36 -111q0 -114 89.5 -192t223.5 -78q171 0 247.5 96t76.5 313v598 q0 62 -26 90.5t-81 28.5q-20 0 -56 -6t-50 -6q-32 0 -52 19.5t-20 52.5q0 41 19.5 60t62.5 19q8 0 105 -9t188 -9t185 9t98 9q42 0 61.5 -19.5t19.5 -59.5q0 -32 -20 -52t-51 -20q-9 0 -46 6h-1q-13 0 -13 -85q0 -150 41 -568q-133 631 -160 631q-1 0 -2 -1q-24 -30 -24 -90 v-606q287 -393 287 -541q0 -88 -103 -88q-28 0 -64 7q-387 71 -630 71q-209 0 -337 114t-128 298z" />
<glyph unicode="K" horiz-adv-x="1575" d="M25 76q0 33 20.5 53t55.5 20q11 0 51.5 -5t69.5 -5q52 0 77 28.5t25 88.5l-172 304q150 551 150 642q0 13 -4 17q-26 26 -85 26q-20 0 -56.5 -5t-53.5 -5q-35 0 -56.5 21t-21.5 55q0 39 23.5 58t72.5 19q19 0 105 -8t153 -8q74 0 166 8t109 8q47 0 72.5 -21t25.5 -61 q0 -26 -21 -48.5t-47 -22.5q-14 0 -43 5t-45 5q-52 0 -72 -23.5t-20 -89.5v-417l527 460q12 11 18 20.5t6 16.5q0 14 -17 23.5t-44 9.5q-9 0 -35.5 -5t-44.5 -5q-37 0 -60.5 20t-23.5 51q0 40 26.5 61t75.5 21q5 0 28 -2q133 -14 271 -14q62 0 140 8t94 8q35 0 59.5 -21.5 t24.5 -53.5q0 -37 -24 -57.5t-66 -20.5q-11 0 -36.5 5t-41.5 5q-27 -1 -53 -11q-5 -2 -6 -25q0 -88 78 -481l-533 109l422 -575q4 -6 14 -20q73 -103 133 -103q10 0 38.5 5t47.5 5q29 0 50.5 -22.5t21.5 -55.5t-29.5 -53t-79.5 -20q-28 0 -119 10t-153 10q-73 0 -162 -10 t-106 -10q-44 0 -65.5 19t-21.5 59q0 32 22 52.5t56 20.5q19 0 54.5 -5t54.5 -5q39 0 61.5 8.5t22.5 22.5q0 9 -8 24t-31 47l-354 486l-40 -263l-192 -208q0 -67 21 -92t73 -25q14 0 45 5t48 5q25 0 43 -22.5t18 -55.5q0 -34 -25.5 -53.5t-70.5 -19.5q-19 0 -109 10t-162 10 q-75 0 -166.5 -10t-107.5 -10q-44 0 -65 19t-21 59z" />
<glyph unicode="L" horiz-adv-x="1241" d="M41 68q0 33 21 54t55 21q15 0 53 -6t59 -6q59 0 85 27.5t26 89.5v876q0 11 -4 11q-18 0 -118 -231q-38 -87 -50 -87q-6 0 -6 20q0 72 76 404q-29 0 -69.5 -5t-51.5 -5q-35 0 -55.5 20t-20.5 54q0 39 21 58t65 19q16 0 107 -9t165 -9q69 0 169.5 9t131.5 9 q56 0 86.5 -19.5t30.5 -53.5q-1 -33 107 -287q29 -68 29 -85q0 -5 -3 -5q-22 0 -211 299q-17 0 -52 5t-52 5q-65 0 -90 -24.5t-25 -92.5v-850q0 -32 15 -32q28 0 105 106q36 50 50 49q8 0 8 -18q0 -52 -65 -248h237q119 0 160 37.5t41 144.5q0 37 -6 93t-6 75q0 38 23.5 64 t56.5 26q31 0 50 -23.5t19 -62.5q0 -14 -6 -89t-6 -136q0 -31 6 -87t6 -81q-14 -133 -29 -133q-3 0 -5 4q-18 27 -66 27q-3 0 -18 1q-29 -277 -77 -277q-49 0 -118 286h-492q-122 0 -247 -9q-22 -1 -27 -1q-46 0 -67 18.5t-21 59.5z" />
<glyph unicode="M" horiz-adv-x="1892" d="M47 70q0 32 21 51.5t55 19.5q16 0 50.5 -5t53.5 -5q55 -1 79 27q3 3 2 14q0 75 -156 524l178 426q0 65 -24 89t-87 24q-14 0 -48 -3t-54 -3q-31 0 -50.5 22t-19.5 56t29 53.5t80 19.5q29 0 107.5 -8t127.5 -8q34 0 83.5 8t66.5 8q48 0 77 -29.5t50 -103.5l420 -639 l137 639q21 76 49 104.5t76 28.5q16 0 66 -8t83 -8q50 0 129 8t109 8q51 0 79.5 -19.5t28.5 -53.5t-19.5 -56t-49.5 -22q-21 0 -55.5 3t-49.5 3q-62 0 -86 -24q-2 -2 -2 -9q0 -74 241 -722l-263 -232q0 -61 25 -89t79 -28q19 0 53 5t49 5q35 0 56.5 -20t21.5 -51 q0 -41 -23.5 -60.5t-72.5 -19.5q-17 0 -97 10t-143 10q-69 0 -155 -10t-103 -10q-42 0 -67 21.5t-25 58.5q0 29 19 50t45 21q13 0 40 -5t42 -5q48 0 68 25t20 92v721q0 55 2 125t6 147h-23l-329 -1126l-2 -6q-35 -119 -101 -119q-72 0 -105 113q-2 7 -3 11l-330 1127h-16 q4 -77 6 -147t2 -125l-140 -217q140 -572 159 -596.5t67 -24.5q14 0 42.5 5t41.5 5q25 0 43 -20.5t18 -50.5q0 -37 -25 -58.5t-67 -21.5q-17 0 -102 10t-154 10q-63 0 -144 -10t-98 -10q-48 0 -71 19.5t-23 60.5z" />
<glyph unicode="N" horiz-adv-x="1669" d="M47 70q0 32 21 51.5t55 19.5q16 0 50.5 -5t53.5 -5q53 0 78 28q3 3 3 13q0 80 -172 588l194 362q0 66 -25 91.5t-86 25.5q-14 0 -48 -4t-54 -4q-31 0 -50.5 21t-19.5 55t29 53.5t80 19.5q24 0 100.5 -8t128.5 -8q30 0 75.5 7t61.5 7q46 0 75.5 -23.5t378.5 -538.5 l240 -660q-1 14 -3 43q-1 12 -1 26q0 140 100 463l-110 438q0 69 -23.5 91t-88.5 22q-18 0 -54 -4t-55 -4q-34 0 -59 23t-25 55q0 35 28.5 53t84.5 18q32 0 133.5 -8t169.5 -8q69 0 149 8t92 8q49 0 72 -18t23 -57q0 -33 -20.5 -53.5t-53.5 -20.5q-16 0 -51 4t-54 4 q-54 0 -78 -26t-24 -87l200 -558q-200 -492 -235.5 -535t-118.5 -43q-56 0 -86 20t-73 105l-563 1110q4 -72 6 -137t2 -119l-132 -209q132 -580 157 -604.5t89 -24.5q16 0 51 5t54 5q33 0 55.5 -21t22.5 -52q0 -38 -27.5 -58t-77.5 -20q-18 0 -116 9t-177 9q-78 0 -163.5 -9 t-94.5 -9q-47 0 -70.5 19.5t-23.5 60.5z" />
<glyph unicode="O" horiz-adv-x="1425" d="M86 682q0 332 167.5 522.5t459.5 190.5q289 0 457.5 -192t168.5 -521q-307 -354 -322 -532.5t-306 -178.5t-458 190.5t-167 520.5zM281 682q116 185 177 185q68 0 68 -228v-37q-1 -24 -1 -48q0 -439 188 -439q187 0 187 435v52q0 21 -1 40q0 225 68 225q61 0 178 -185 q0 261 -117.5 415t-314.5 154q-198 0 -315 -154t-117 -415z" />
<glyph unicode="P" horiz-adv-x="1296" d="M49 60q0 32 20.5 52.5t53.5 20.5q19 0 52.5 -6t49.5 -6q67 -1 95 27q6 5 5 36q0 124 -93 664l116 268q0 62 -25.5 92.5t-76.5 30.5q-29 0 -69.5 -8t-51.5 -8q-35 0 -55.5 20t-20.5 54q0 39 21 58t65 19q18 0 106.5 -9t155.5 -9q76 0 208 9t189 9q232 0 349.5 -100 t117.5 -297q0 -106 -34.5 -181.5t-108.5 -129.5q33 -231 33 -342q0 -100 -27 -100q-24 0 -72 83q-156 275 -327 275q-35 0 -76.5 1t-48.5 1q-48 0 -64 -10h-1q-20 0 -159 266l144 -600q0 -68 26 -93.5t91 -25.5q17 0 53 6t53 6q32 0 54 -21.5t22 -53.5q0 -37 -30 -56.5 t-87 -19.5q-39 0 -133 9t-147 9q-85 0 -180.5 -9t-106.5 -9q-44 0 -65 19t-21 59zM512 786q0 -36 22.5 -47.5t108.5 -11.5q194 -70 296 -70q93 0 107 59q30 124 29 265q0 144 -81.5 205t-276.5 61q-142 0 -173.5 -21t-31.5 -93v-347z" />
<glyph unicode="Q" horiz-adv-x="1425" d="M86 682q0 332 167.5 522.5t459.5 190.5q289 0 457.5 -192t168.5 -521q0 -247 -98.5 -423.5t-271.5 -242.5v-100q0 -109 26 -149.5t90 -40.5q47 0 75.5 18.5t43.5 60.5q6 16 7.5 54t5.5 58q3 15 18.5 25.5t36.5 10.5q40 0 58 -25t18 -82q99 -138 99 -201q0 -54 -70 -54 q-5 0 -9 1h-22q-158 0 -314 -104q-257 49 -257 126q0 11 5 24q45 93 45 225v117q-25 -5 -51 -7t-55 -2q-298 0 -465.5 188t-167.5 523zM281 670q0 -188 51.5 -319t146.5 -183q-17 35 -26 73t-9 81q0 105 76.5 171t198.5 66q128 0 189 -71t61 -222v-84q77 47 126.5 181 t49.5 307q0 266 -116.5 419.5t-317.5 153.5q-204 -368 -254 -368q-15 0 -15 38q0 15 2 35q4 30 4 48q0 26 -8 26q-28 0 -159 -352zM547 281q0 -82 49.5 -130.5t134.5 -48.5q24 0 48 4.5t46 12.5v112q0 129 -29 172q-3 5 -6 5q-27 0 -70 -304q-78 301 -120 301q-6 0 -11 -5 q-42 -47 -42 -119z" />
<glyph unicode="R" horiz-adv-x="1520" d="M41 68q0 33 20.5 53t55.5 20q15 0 53 -6t59 -6q58 0 84.5 28.5t26.5 90.5l-140 296q66 304 66 432q0 93 -35 92q-19 0 -49 -28q-47 -45 -63 -45q-8 0 -8 11q0 43 108 241q-17 0 -53.5 -8t-54.5 -8q-30 0 -50 21t-20 53q0 39 21 58t65 19q13 0 106.5 -9t174.5 -9 q69 0 202.5 9t198.5 9q215 0 515 -255q134 -114 134 -145q0 -12 -19 -12q-43 0 -186 62q0 -142 -77.5 -230.5t-212.5 -101.5q116 -19 163.5 -75t47.5 -176v-199q0 -73 18 -100q2 -3 5 -3q20 0 67 189q37 -179 58 -179q4 1 7 7q21 40 21 162v153q0 42 14.5 60t48.5 18 q32 0 48 -20.5t16 -61.5v-237q120 -299 120 -383q0 -33 -18 -33q-17 0 -51 29q-160 139 -285 139q-130 0 -180.5 58.5t-50.5 215.5v154q0 129 -67 173t-312 44q-78 0 -99.5 -9.5t-21.5 -39.5v-338q0 -68 26 -93.5t91 -25.5q17 0 53 6t53 6q32 0 54 -21.5t22 -53.5 q0 -37 -30 -56.5t-87 -19.5q-39 0 -133 9t-147 9q-85 0 -180.5 -9t-106.5 -9q-44 0 -65 19t-21 59zM512 823q0 -34 22 -44.5t111 -10.5q254 0 348 53t94 183q0 68 -27 68q-24 0 -72 -57q-25 -30 -55 -30q-86 0 -206 262q-151 0 -183 -19.5t-32 -86.5v-318z" />
<glyph unicode="S" horiz-adv-x="1128" d="M-256 288q347 60 347 140l-7 86q0 49 20 75.5t56 26.5q39 0 58.5 -28.5t19.5 -87.5v-66q0 -76 14 -76q11 0 31 50q10 25 30 25q71 0 269 -306q144 0 225.5 69t81.5 191q0 101 -53.5 150.5t-276.5 97.5q-6 1 -16 3q-232 48 -297 93q-71 49 -107 118.5t-36 155.5 q0 178 120 288t314 110q91 0 170.5 -27t142.5 -80v10q0 35 16.5 55.5t45.5 20.5q30 0 50.5 -16t20.5 -39q0 -1 -5 -51t-5 -99q0 -119 9 -239q1 -22 1 -27q0 -47 -16 -67.5t-53 -20.5q-26 0 -45.5 13.5t-24.5 33.5q-8 30 -8 97t-6 104q-113 -17 -183 -17q-108 0 -108 42 q0 18 20 42q41 53 41 84q0 39 -69 39q-118 0 -185 -61.5t-67 -169.5q0 -95 60.5 -145.5t260.5 -94.5q19 -4 56 -12q220 -46 284 -98q59 -47 88 -113.5t29 -155.5q138 -230 138 -340q0 -102 -118 -102q-5 1 -11 1q-262 10 -478 9q-110 0 -196.5 30t-161.5 93q2 -17 3 -26 t1 -15q0 -42 -18 -62t-58 -20q-32 -1 -53 23q-6 6 -21 7q-45 0 -172 -49q118 86 118 123q0 17 -24 23q-78 22 -262 182z" />
<glyph unicode="T" horiz-adv-x="1237" d="M39 881q0 14 6 89t6 136q0 31 -6 87t-6 81q0 50 28.5 75t86.5 25q5 0 30 -1q167 -7 344 -7h181q183 0 347 7q23 1 27 1q57 0 85 -24.5t28 -75.5q0 -25 -7 -81t-7 -87q0 -61 7 -136t7 -89q0 -40 -18 -63t-50 -23q-33 0 -56 26t-23 64l5 75q0 12 -16 12q-52 0 -278 -132 q261 278 261 342q1 9 -5 14q-44 37 -176 37q-80 0 -105.5 -24.5t-25.5 -116.5l-101 -580q101 -326 130 -354.5t104 -28.5q18 0 49.5 5t46.5 5q34 156 54 156q11 1 18 -51q18 -140 18 -176q0 -41 -23.5 -60.5t-70.5 -19.5q-32 0 -137 9t-179 9q-62 0 -168 -9t-149 -9 q-48 0 -71 19t-23 59q0 32 22 52.5t56 20.5q16 0 53.5 -5t58.5 -5q76 0 103.5 27.5t27.5 109.5l-64 198q21 240 21 374q0 168 -34 168q-20 0 -51 -58q-40 -74 -56 -74q-11 0 -10 33q0 75 57 326q-105 0 -105 -75q0 -18 5 -38q5 -19 5 -33q0 -47 -52 -47q-27 0 -68 13 q0 -39 6 -95t6 -73q47 -88 47 -116q0 -13 -10 -13q-7 0 -19 6q-66 34 -97 33q-32 0 -51 23.5t-19 62.5z" />
<glyph unicode="U" horiz-adv-x="1663" d="M20 1305q0 39 21.5 58t64.5 19q16 0 106.5 -9t166.5 -9q70 0 165.5 9t121.5 9q49 0 77.5 -19.5t28.5 -53.5q0 -36 -19.5 -58t-50.5 -22q-18 0 -51 5t-47 5q-58 0 -81 -24t-23 -91l340 -428q-278 -345 -278 -459q0 -25 14 -39q76 -76 258 -77q178 0 254.5 75.5t76.5 254.5 v86v585q0 68 -22.5 92.5t-79.5 24.5q-14 0 -47 -5t-51 -5q-32 0 -52 21.5t-20 56.5q0 34 29.5 54.5t78.5 20.5q26 0 120.5 -9t164.5 -9q76 0 166.5 9t106.5 9q43 0 65.5 -20t22.5 -59q0 -33 -21.5 -53.5t-56.5 -20.5q-12 0 -52.5 5t-68.5 5q-44 0 -73 -26.5t-29 -65.5 q0 -3 1 -10t1 -13l-2 -497v-101l174 -198q-47 6 -82 6q-96 0 -104 -44q-1 -5 -1 -13q0 -77 115 -381q-158 141 -265 141q-31 -1 -58 -13q-118 -54 -289 -53q-137 0 -242 34.5t-166 98.5q-58 61 -84 146q-2 8 -2 18q0 92 218 332l-241 27v497q0 59 -24.5 87t-77.5 28 q-28 0 -68.5 -5t-52.5 -5q-34 0 -55 21t-21 55z" />
<glyph unicode="V" horiz-adv-x="1530" d="M-39 1305q0 31 26.5 53t63.5 22q7 0 113.5 -10t206.5 -10q82 0 166 10t86 10q39 0 59 -20t20 -60q0 -33 -22.5 -51t-65.5 -18q-14 0 -49 4t-57 4q-29 0 -46.5 -18t-17.5 -47q0 -16 3.5 -33t9.5 -35l215 -674l401 674q7 20 10.5 40t3.5 42q0 21 -19.5 36t-47.5 15 q-22 0 -57.5 -4t-49.5 -4q-42 0 -65 18t-23 51q0 39 21.5 59.5t60.5 20.5q2 0 85 -10t165 -10q99 0 206.5 10t115.5 10q37 0 63.5 -22t26.5 -53q0 -30 -21 -52t-47 -22q-14 0 -38 4t-33 4q-66 0 -98 -27.5t-60 -101.5l-376 -670q-28 -414 -58.5 -440.5t-81.5 -26.5 q-50 0 -78.5 26.5t-63.5 121.5l-206 319q-117 487 -177 487q-32 0 -48 -135q-15 -125 -28 -125q-28 0 -46 572q-4 0 -20 -4t-34 -4q-54 0 -74 17.5t-20 56.5z" />
<glyph unicode="W" horiz-adv-x="1847" d="M-51 1311q0 30 25.5 50.5t64.5 20.5q6 0 112.5 -8t206.5 -8q61 0 135 8t87 8q40 0 59.5 -18.5t19.5 -56.5q0 -37 -22.5 -56.5t-65.5 -19.5q-10 0 -42.5 5t-55.5 5q-56 0 -76 -13.5t-20 -49.5q0 -16 2.5 -35t7.5 -43l176 -887l309 803q-41 202 -41 282q-1 38 9 50 q30 34 84 34q53 0 81.5 -31t47.5 -118l229 -1020l176 886q5 25 7.5 44t2.5 35q0 36 -19.5 49.5t-76.5 13.5q-22 0 -55 -5t-43 -5q-43 0 -65.5 19.5t-22.5 56.5q0 38 19.5 56.5t60.5 18.5q12 0 86.5 -8t134.5 -8q101 0 207.5 8t111.5 8q39 0 64.5 -20.5t25.5 -50.5 q0 -33 -22.5 -56.5t-52.5 -23.5q-25 0 -53 5t-33 5q-71 0 -96 -116q-2 -8 -3 -11l-52 -930q61 -260 61 -375q0 -90 -38 -90q-28 1 -76 49q-197 200 -249 199q-56 0 -86 32t-47 110l-189 587l-264 -587q-15 -76 -46.5 -109t-86.5 -33q-52 0 -80 32.5t-49 123.5l-225 991 q-19 84 -38.5 105.5t-59.5 21.5q-6 0 -34.5 -5t-51.5 -5q-31 0 -53.5 23.5t-22.5 56.5z" />
<glyph unicode="X" horiz-adv-x="1579" d="M-11 68q0 30 23 51.5t55 21.5q21 0 53 -5t43 -5q69 0 141 413l23 -290l177 434l-111 434q-135 -360 -169 -360q-11 0 -11 39q0 33 8 93q24 183 24 270q0 79 -20 79q-12 0 -45 -5t-55 -5q-35 0 -57.5 22t-22.5 56q0 31 27 53t65 22q44 0 150 -10t167 -10q65 0 138.5 10 t82.5 10q42 0 61 -18.5t19 -58.5q0 -33 -19 -54.5t-46 -21.5q-14 0 -44.5 5t-47.5 5q-28 0 -43 -6t-15 -16q0 -15 23 -46q4 -5 6 -8l235 -311l236 311q2 3 8 11q25 32 25 45q0 10 -15 15t-51 5q-18 0 -49 -5t-43 -5q-27 0 -45 21t-18 53q0 41 19 60t60 19q11 0 85 -10 t139 -10q59 0 165.5 10t153.5 10q38 0 64 -22t26 -53q0 -34 -22.5 -56t-57.5 -22q-22 0 -54 5t-44 5q-33 0 -33 -134q0 -37 3 -87q1 -16 1 -30q0 -61 -18 -61q-32 0 -123 191l-88 -410l154 -458q2 -3 7 -10q88 -113 157 -113q23 187 40 187q8 0 14 -44q20 -134 42 -133 q32 0 55 -21.5t23 -51.5q0 -34 -25.5 -56t-62.5 -22q-34 0 -146.5 9t-191.5 9q-64 0 -143 -9t-93 -9q-40 0 -59 19t-19 61q0 33 19 52t51 19q15 0 47.5 -5t50.5 -5q29 0 47.5 10.5t18.5 26.5q0 12 -8 29t-23 36l-279 365l-278 -365q-16 -20 -23.5 -35.5t-7.5 -27.5 q0 -17 17 -28t43 -11q24 0 58.5 5t45.5 5q32 0 51 -19t19 -52q0 -42 -19 -61t-59 -19q-14 0 -92 9t-142 9q-79 0 -192.5 -9t-147.5 -9q-37 0 -62.5 22t-25.5 56z" />
<glyph unicode="Y" horiz-adv-x="1503" d="M-39 1321q0 31 26.5 53t63.5 22q7 0 115.5 -10t210.5 -10t199 18q15 2 18 2q46 0 70 -20.5t24 -59.5q0 -32 -21.5 -51.5t-56.5 -19.5q-12 0 -44 4t-52 4q-39 0 -56.5 -10t-17.5 -33q0 -17 17 -44l6 -9l361 -501l214 500q3 5 9 14q16 25 16 40q0 23 -17.5 33t-56.5 10 q-20 0 -52 -4t-44 -4q-35 0 -56.5 19.5t-21.5 51.5q0 37 23 58.5t63 21.5q1 0 4 -1t6 -1q4 0 18 -2q95 -16 197 -16t209.5 10t114.5 10q38 0 65 -22t27 -53q0 -30 -21.5 -53t-47.5 -23q-30 0 -59 4t-30 4q51 -354 51 -451q0 -36 -7 -36q-12 0 -46 109q-33 105 -78 105 q-99 0 -256 -524l-210 80v-274q0 -61 25 -90t77 -29q28 0 68.5 6t52.5 6q35 0 56.5 -19.5t21.5 -51.5q0 -40 -21.5 -60t-64.5 -20q-4 0 -105.5 10t-199.5 10q-80 -133 -147 -133q-29 0 -57 27q-87 86 -93 86q-43 0 -64.5 20t-21.5 60q0 32 21 51.5t56 19.5q12 0 52.5 -6 t68.5 -6q-2 28 -2 49q0 78 23 78q10 0 24 -14q27 -26 41 -26q15 0 15 32v274l-398 617q-84 -640 -108 -640q-9 0 -9 99q0 40 1 94q4 131 4 231q0 316 -35 316l-29.5 -4t-58.5 -4q-27 0 -48.5 23t-21.5 53z" />
<glyph unicode="Z" horiz-adv-x="1241" d="M-32 600q169 303 176 378t7 136q0 31 -7 87t-7 81q0 45 26.5 71.5t71.5 26.5q3 0 16 -1q94 -5 201 -5h351q108 0 216 2h21q66 0 97.5 -24t31.5 -74q0 -46 143 -294q-97 -119 -152 -119q-77 0 -77 226v37l-795 -872l535 -113q106 0 106 66q1 9 -1 19t-2 19q0 66 98 74 q0 37 -6 93t-6 75q0 38 24 64t57 26q32 0 50 -23t18 -63q0 -14 -6 -89t-6 -136q0 -31 6 -87t6 -81q0 -49 -27 -74.5t-79 -25.5q-5 0 -21 1q-94 7 -186 7h-402q-78 0 -158 -4t-81 -4q-66 0 -95.5 28t-29.5 89q0 34 15 67.5t295 615.5l556 437h-471q11 -81 11 -132 q0 -91 -35 -91q-21 0 -55 33q-65 63 -95 63q-27 0 -27 -49q0 -37 6.5 -93t6.5 -75q0 -38 -24.5 -64t-57.5 -26q-32 -1 -51 23q-2 2 -4 3q-30 0 -184 -229z" />
<glyph unicode="[" horiz-adv-x="1012" d="M283 1190q0 135 23.5 164.5t88.5 29.5q18 0 71 -5t89 -5q43 0 111.5 5t93.5 5q46 0 69 -13.5t23 -41.5q0 -32 -27.5 -44.5t-103.5 -12.5q-23 0 -66.5 4t-64.5 4q-93 0 -128.5 -40.5t-35.5 -162.5l134 -405q-134 -973 -99 -1013t129 -40q21 0 64.5 4t66.5 4 q74 0 102.5 -13.5t28.5 -45.5q0 -27 -22.5 -40t-69.5 -13q-21 0 -89.5 4t-115.5 4q-36 0 -89 -4t-71 -4q-65 0 -88.5 29.5t45.5 823.5z" />
<glyph unicode="\" horiz-adv-x="563" d="M14 1327q0 20 11.5 29.5t35.5 9.5q25 0 39 -12t27 -55l447 -1394q1 -6 6 -20q8 -24 8 -35q0 -20 -11.5 -29t-35.5 -9q-26 0 -40.5 12.5t-420.5 871.5l-51 575q-2 7 -6 18q-9 25 -9 38z" />
<glyph unicode="]" horiz-adv-x="1012" d="M160 -432q0 32 28.5 45.5t102.5 13.5q23 0 66.5 -4t64.5 -4q94 0 130 40.5t-48 1028.5l84 389q0 121 -36 162t-130 41q-21 0 -64.5 -4t-66.5 -4q-76 0 -103.5 12.5t-27.5 44.5q0 28 23 41.5t69 13.5q24 0 93 -5t112 -5q36 0 90 5t71 5q65 0 88 -28.5t23 -151.5v-14 l-57 -558q57 -1060 34 -1088.5t-88 -28.5q-17 0 -71 4t-90 4q-48 0 -116 -4t-89 -4q-47 0 -69.5 13t-22.5 40z" />
<glyph unicode="^" horiz-adv-x="2048" d="M406 901l520 557h162l520 -557l-432 331l-216 144l-200 -256z" />
<glyph unicode="_" d="M0 -365h1024l-352 -91l-72 -16z" />
<glyph unicode="`" d="M324 1419q0 33 21.5 56.5t51.5 23.5q46 0 147 -179q-18 95 -16 93l162 -162q8 -7 21 -21q57 -56 57 -65t-10.5 -16.5t-24.5 -7.5q-26 0 -103 47q-2 1 -3 2l-190 116q-6 4 -16 10q-97 58 -97 103z" />
<glyph unicode="a" horiz-adv-x="1133" d="M49 266q0 132 77 200.5t259 94.5q11 2 29 4q297 43 297 170q0 80 -57.5 125t-159.5 45q-84 0 -146.5 -28t-62.5 -60q0 -7 23.5 -35.5t23.5 -56.5q0 -40 -29.5 -67t-73.5 -27q-56 0 -88 36.5t-32 100.5q0 116 110.5 188t294.5 72q190 0 273 -81.5t83 -268.5v-463 q0 -69 14 -92t50 -23q38 0 55 24.5t17 82.5v102q0 44 14 64t45 20q32 0 45.5 -20t13.5 -70v-149q0 -88 -55 -137.5t-151 -49.5q-80 0 -124.5 40.5t-48.5 114.5q-60 -76 -150 -115.5t-208 -39.5q-164 0 -251 77.5t-87 221.5zM199 258q0 -69 53 -113.5t137 -44.5q152 0 242 71 t90 189v158q-63 -49 -271 -78h-1q-1 -155 -82 -155q-19 0 -43 9q-45 17 -74 17q-51 0 -51 -53z" />
<glyph unicode="b" horiz-adv-x="1176" d="M-84 1307q0 30 20 45.5t60 15.5q17 0 61.5 -5t71.5 -5q33 0 79 5t60 5q41 0 57.5 -21t16.5 -73q0 -34 -3 -130q-1 -28 -1 -42l-10 -234q55 84 133 124t186 40q203 0 328 -146t125 -384q0 -249 -125 -390t-346 -141q-89 0 -163.5 28.5t-131.5 84.5v-18q0 -61 -17.5 -78 t-74.5 -17q-37 0 -52.5 16.5t-15.5 59.5v88v967q0 48 -32 48q-35 0 -107 -57q-41 -32 -55 -32q-7 0 -7 7q0 30 97 173h-62q-47 0 -69.5 16t-22.5 50zM328 422q0 -166 66.5 -243t209.5 -77q157 0 243.5 104t86.5 294q0 182 -85.5 288.5t-230.5 106.5q-73 0 -73 -97 q1 -82 53 -234q26 -76 26 -118q0 -51 -39 -51q-68 0 -257 156v-129z" />
<glyph unicode="c" horiz-adv-x="1018" d="M76 498q0 248 128 390t351 142q180 0 290.5 -83.5t110.5 -217.5q0 -78 -44.5 -124t-120.5 -46q-52 0 -80.5 23.5t-28.5 66.5q0 29 15 53t42 39q5 3 15 6q22 9 22 27q0 12 -13 12q-39 0 -191 -103q-57 -39 -83 -39q-20 0 -20 24q0 55 100 231q-158 0 -245.5 -109.5 t-87.5 -308.5q0 -148 88 -148q15 1 34 5q12 3 24 3q104 0 161 -245q93 0 154 38.5t100 122.5q9 19 23 60q34 95 85 95q32 0 53 -20.5t21 -51.5q0 -46 -24.5 -108.5t-63.5 -112.5q-60 -75 -149 -113.5t-205 -38.5q-213 0 -337 143t-124 388z" />
<glyph unicode="d" horiz-adv-x="1241" d="M76 483q0 252 122.5 400.5t329.5 148.5q107 0 184 -39.5t136 -124.5v170v41q0 112 -24.5 140t-96.5 28h-63q-40 0 -58 14t-18 44q0 31 21 48t61 17q4 0 36.5 -3t59.5 -3q71 0 143 5q15 1 19 1q43 0 58 -16t15 -68v-1034q0 -98 19 -118.5t78 -20.5h53q44 0 65 -16.5 t21 -49.5q0 -32 -19.5 -46.5t-62.5 -14.5q-13 0 -58.5 7t-78.5 7q-20 0 -62 -7t-65 -7q-29 0 -39 14t-10 66v18q-57 -55 -132.5 -84t-164.5 -29q-216 0 -342.5 138.5t-126.5 373.5zM242 500q393 -3 393 -114q-1 -37 -45 -87q-94 -105 -94 -154q0 -43 73 -43q144 0 211.5 77 t67.5 243v129q0 161 -78 252.5t-213 91.5q-144 0 -229.5 -106.5t-85.5 -288.5z" />
<glyph unicode="e" horiz-adv-x="1049" d="M76 498q0 243 124.5 386.5t336.5 143.5q204 0 326 -122.5t122 -327.5q0 -59 -20 -79t-78 -20h-35h-612v-6q0 -169 83.5 -271t221.5 -102q84 0 141.5 30t104.5 97q18 27 38 82q31 82 78 82q30 0 50 -20.5t20 -51.5q0 -36 -24 -89.5t-64 -106.5q-62 -80 -147.5 -118 t-204.5 -38q-213 1 -355 25q-114 20 -113 330q0 79 7 176zM340 820q-20 -20 -20 -36q0 -45 160 -56l335 -118v13q0 122 -76.5 198t-199.5 76q-121 0 -199 -77z" />
<glyph unicode="f" horiz-adv-x="688" d="M2 51q0 35 22 52.5t64 17.5q11 0 30.5 -3t27.5 -3q59 0 78 21q3 3 3 10q0 47 -107 278l124 450q-54 -1 -112.5 -3.5t-63.5 -2.5q-34 0 -50 14t-16 44t21.5 47.5t58.5 17.5q4 0 49 -3t86 -3h27q0 7 -1 20.5t-1 20.5q0 169 86 256.5t252 87.5q115 0 184.5 -50.5 t69.5 -133.5q0 -45 -25 -72t-67 -27q-44 0 -69.5 20t-25.5 54q0 12 4.5 33.5t4.5 30.5q0 14 -19 21t-59 7q-91 0 -138 -55t-47 -162q0 -20 0.5 -30.5t2.5 -20.5q67 0 140 5q17 1 21 1q41 0 63.5 -16.5t22.5 -46.5t-17.5 -45t-53.5 -15q-4 0 -21 1q-78 5 -151 5l-64 -266 q64 -446 79 -469.5t62 -23.5q4 0 31 3t49 3q45 0 65.5 -16.5t20.5 -51.5q0 -31 -20 -47t-58 -16q-7 0 -93 8t-165 8q-67 0 -141 -8t-82 -8q-43 0 -62.5 14.5t-19.5 46.5z" />
<glyph unicode="g" horiz-adv-x="1081" d="M78 -55q0 71 45 133.5t121 93.5q-72 29 -108 74.5t-36 107.5q0 68 40 117.5t112 71.5q-21 39 -31 78t-10 77q0 146 99.5 231t271.5 85q24 0 48.5 -2t49.5 -6v6q0 79 63 131.5t158 52.5q92 0 150.5 -51t58.5 -131q0 -49 -26 -77q-4 -5 -4 -24q0 -88 96 -473 q-201 469 -222.5 488.5t-21.5 54.5q0 21 15.5 42.5t15.5 23.5q0 12 -21 23t-49 11q-44 0 -71 -28t-27 -74q0 -3 1 -9t1 -9q71 -44 108 -111.5t37 -153.5q0 -150 -101 -235.5t-278 -85.5q-106 0 -215 47q-28 12 -35 12q-26 0 -45.5 -23.5t-19.5 -56.5q0 -52 43 -81t121 -29 q23 0 82 2t94 2q227 0 347 -78.5t120 -226.5q0 -139 -133 -223t-355 -84q-227 0 -329 -187q-22 -40 -42 -40q-72 0 -118 534zM233 -47q0 -81 89 -127.5t245 -46.5q152 0 243 48t91 126q0 35 -46 35q-59 0 -197 -60q-61 -26 -98 -26q-51 0 -51 53q0 57 58 174 q-150 0 -242 -49t-92 -127zM362 696q0 -83 60.5 -136.5t155.5 -53.5q94 0 154.5 53.5t60.5 136.5q0 84 -60.5 137.5t-154.5 53.5q-95 0 -155.5 -54t-60.5 -137z" />
<glyph unicode="h" horiz-adv-x="1372" d="M-14 1323q0 31 20.5 48t59.5 17q2 0 35.5 -3t66.5 -3q72 0 144 5q13 1 16 1q38 0 51.5 -15.5t13.5 -74.5v-430q66 84 146.5 123t185.5 39q208 0 300.5 -102.5t92.5 -331.5v-324q0 -94 18.5 -117.5t78.5 -23.5q12 0 29.5 3t23.5 3q42 0 64 -17.5t22 -52.5q0 -33 -18.5 -47 t-61.5 -14q-11 0 -84 8t-135 8q-74 0 -154 -8t-86 -8q-35 0 -54 16.5t-19 46.5q0 35 19.5 51.5t59.5 16.5q18 0 42 -3t30 -3q42 0 56 23t14 118v291q0 185 -61 263q-7 9 -15 10q-58 0 -143 -524q-171 500 -251 500q-15 0 -26 -17q-74 -110 -74 -349v-174q0 -95 14 -118 t56 -23q6 0 30.5 3t41.5 3q40 0 59 -16.5t19 -51.5q0 -31 -18.5 -47t-53.5 -16q-6 0 -86 8t-154 8q-61 0 -134.5 -8t-84.5 -8q-43 0 -61.5 14t-18.5 47q0 35 21 52.5t63 17.5q11 0 30.5 -3t27.5 -3q59 0 78.5 21t19.5 120v782q0 42 -13 42q-33 0 -152 -289 q-52 -127 -67 -127q-6 0 -5 19q0 86 118 568h-63q-40 0 -57 13t-17 43z" />
<glyph unicode="i" horiz-adv-x="680" d="M35 51q0 34 21.5 51t64.5 17q10 0 29 -3t28 -3q62 1 80 25q2 3 1 5q0 27 -139 97l156 424q0 141 -20 175.5t-82 34.5h-74q-37 0 -51 13t-14 45q0 27 20.5 46t50.5 19q6 0 45.5 -3t73.5 -3q57 0 119 5q15 1 18 1q42 0 56 -15t14 -69l-160 -617q160 -132 178.5 -157.5 t77.5 -25.5q13 0 30 3t24 3q43 0 64.5 -17t21.5 -51q0 -33 -18.5 -47t-61.5 -14q-12 0 -84 8t-131 8q-111 0 -225 -13q-25 -3 -31 -3q-44 0 -63 14.5t-19 46.5zM215 1194q0 47 32 79t79 32q46 -1 308 -233q133 -118 132 -196q0 -77 -126 -116q-192 359 -233 359q-3 0 -6 -2 q-31 -32 -75 -32q-47 0 -79 31.5t-32 77.5z" />
<glyph unicode="j" horiz-adv-x="680" d="M-184 -190q0 54 29 87t77 33q45 0 71 -26t26 -72q0 -28 -22 -59q-7 -10 -7 -13q0 -11 33.5 -22.5t77.5 -11.5q104 0 157 71.5t53 212.5l-95 366q77 351 77 441q0 21 -5 27q-22 35 -83 35h-88q-40 0 -57 13.5t-17 45.5q0 31 17.5 46t52.5 15q3 0 16 -1q65 -5 125 -5 q57 0 119 5q14 1 18 1q42 0 56 -16.5t14 -69.5l-109 -561q97 -367 97 -458q0 -11 -1 -18q-13 -64 -42 -112q-47 -74 -129 -115.5t-183 -41.5q-116 0 -197 60.5t-81 142.5zM250 1194q0 47 31.5 79t78.5 32q46 0 155 67q23 15 35 15q10 0 10 -12q0 -37 -91 -181q0 -45 -32 -77 t-77 -32q-46 0 -78 31.5t-32 77.5z" />
<glyph unicode="k" horiz-adv-x="1270" d="M16 51q0 34 21.5 51t64.5 17q11 0 30 -2t28 -2q60 0 79 23.5t105 629.5l-86 293q0 129 -21.5 157.5t-80.5 28.5h-74q-37 0 -51.5 13t-14.5 45q0 30 19.5 46.5t56.5 16.5q3 0 33 -3t59 -3q68 0 138 5q14 1 18 1q41 0 55.5 -15.5t14.5 -68.5v-758l307 310q15 15 20.5 24.5 t5.5 18.5q0 7 -4.5 9.5t-23.5 2.5q-14 0 -43.5 -4t-44.5 -4q-36 0 -56 16.5t-20 46.5q0 31 20.5 48.5t57.5 17.5q2 0 72 -8.5t139 -8.5q73 0 150 8.5t81 8.5q44 0 63 -14.5t19 -47.5q0 -37 -24.5 -52t-86.5 -15q-1 0 -1 -4q1 -21 33 -165q10 -44 9 -54q0 -3 0 -2 q-7 0 -82 233q-14 0 -14 -33q0 -42 25 -144q15 -59 15 -104q0 -90 -59 -122l-232 184l255 -492q26 -38 51.5 -51.5t71.5 -13.5q10 0 26.5 2t24.5 2q42 0 63 -18.5t21 -53.5q0 -32 -18 -45.5t-62 -13.5q-1 0 -80 9t-157 9q-60 0 -121 -9l-61 -9q-33 0 -47.5 13.5t-14.5 45.5 q0 39 18 55.5t66 16.5q19 0 30 -3q4 -1 5 -1q21 0 29 5t8 17q0 4 -7 14q-4 6 -5 8l-263 367l-159 -155v-115q0 -90 15 -115.5t60 -25.5q6 0 20 2t21 2q33 0 49.5 -16.5t16.5 -49.5q0 -35 -14.5 -50t-47.5 -15l-63 9t-127 9q-80 0 -160 -9t-82 -9q-42 0 -62 15t-20 48z" />
<glyph unicode="l" horiz-adv-x="680" d="M35 51q0 34 21.5 51t64.5 17q10 0 29 -2t28 -2q62 0 80 24q3 4 2 23q0 102 -84 646l100 245q0 133 -21 163.5t-81 30.5h-74q-37 0 -51 13t-14 45q0 30 19.5 46.5t56.5 16.5q1 0 33 -3t61 -3q70 0 140 5q14 1 17 1q41 0 55.5 -15.5t14.5 -68.5l-56 -412q56 -709 74 -733 t78 -24q13 0 30 2t24 2q43 0 64.5 -17t21.5 -51q0 -33 -18.5 -47t-61.5 -14q-12 0 -84 8t-131 8q-111 0 -225 -13q-25 -3 -31 -3q-44 0 -63 14.5t-19 46.5z" />
<glyph unicode="m" horiz-adv-x="1919" d="M24 544l250 163q0 112 -20.5 141t-77.5 29h-63q-40 0 -58 12.5t-18 40.5q0 32 21.5 49.5t60.5 17.5q3 0 32 -3t56 -3q62 0 127 5q14 1 16 1q38 0 52 -15t14 -69v-67q48 83 125 126.5t178 43.5q83 0 152 -36t124 -108q61 75 137.5 109.5t180.5 34.5q186 0 274 -106 t213 -662l-125 8q0 -90 18 -115.5t79 -25.5q12 0 29.5 3t23.5 3q42 0 64 -17.5t22 -52.5q0 -33 -18.5 -47t-61.5 -14q-17 0 -84 8t-117 8h-20q-34 0 -103.5 -8t-101.5 -8q-35 0 -50.5 15t-15.5 48q0 36 15 52t49 16q12 0 32 -3t27 -3q33 0 44.5 22t11.5 119l-206 528 q79 -18 120 -18q46 0 46 22q0 10 -10 26q-50 78 -174 77q-129 0 -188 -99q-16 -27 -16 -56q0 -81 118 -184l-161 -296q0 -90 11.5 -115.5t49.5 -25.5q8 0 30 3t36 3q37 0 54 -16.5t17 -51.5q0 -32 -16.5 -47.5t-50.5 -15.5q-11 0 -80.5 8t-128.5 8q-57 0 -124.5 -8t-78.5 -8 q-33 0 -49.5 15.5t-16.5 47.5q0 35 17 51.5t53 16.5q12 0 33.5 -3t30.5 -3q36 0 47.5 25.5t11.5 115.5l-293 216q252 237 252 323q0 13 -6 23q-48 70 -162 71q-132 0 -195 -99t-63 -307v-227q0 -92 10.5 -116.5t44.5 -24.5q10 0 27 3t24 3q38 0 54 -15.5t16 -52.5 q0 -34 -14.5 -48.5t-50.5 -14.5q-8 0 -69 8t-118 8q-74 0 -153 -8t-82 -8q-43 0 -60.5 14t-17.5 47q0 35 21 52.5t63 17.5q11 0 29 -3t26 -3q62 0 80 24q1 2 1 5q0 45 -233 400z" />
<glyph unicode="n" horiz-adv-x="1399" d="M37 51q0 35 21 52.5t63 17.5q11 0 29 -3t26 -3q58 -1 78 21q2 2 2 7q0 50 -184 409l202 181q0 86 -20.5 115t-77.5 29h-63q-40 0 -58 12.5t-18 40.5q0 32 21.5 49.5t60.5 17.5q5 0 34 -3t54 -3q62 0 127 5q14 1 16 1q39 0 52.5 -16t13.5 -68v-75q72 94 152 135t190 41 q208 0 302 -102q64 -70 182 -70q53 0 118 14l-207 -600q0 -99 19 -120t77 -21q13 0 30 3t24 3q42 0 64 -17.5t22 -52.5q0 -32 -19.5 -46.5t-62.5 -14.5q-11 0 -84.5 8t-135.5 8q-73 0 -153 -8t-86 -8q-35 0 -53.5 16t-18.5 47q0 35 19 51.5t59 16.5q17 0 42 -3t32 -3 q42 0 55.5 23.5t13.5 113.5v293q0 185 -61.5 264.5t-202.5 79.5q-159 -1 -266 -245q-27 -61 -27 -89q0 -23 19 -23q48 0 221 156l-254 -465q0 -63 14.5 -85.5t55.5 -22.5q6 0 30 3t41 3q41 0 60.5 -16.5t19.5 -51.5q0 -31 -18 -47t-54 -16q-6 0 -86.5 8t-154.5 8 q-62 0 -135 -8t-84 -8q-43 0 -60.5 14t-17.5 47z" />
<glyph unicode="o" horiz-adv-x="1171" d="M76 498q0 243 137 385.5t371 142.5q237 0 373.5 -141.5t136.5 -386.5q2 -56 2 -105q0 -401 -130 -413q-146 -12 -384 -13q-232 0 -369 144t-137 387zM246 506q378 -74 378 -178q0 -33 -38 -69q-77 -73 -78 -110q0 -39 86 -39q161 0 253.5 105.5t92.5 290.5q0 187 -92 292 t-254 105q-163 0 -255.5 -105.5t-92.5 -291.5z" />
<glyph unicode="p" horiz-adv-x="1241" d="M2 932q0 31 15 48t42 17q13 0 34 -4t30 -4q61 0 131 4t78 4q40 0 52.5 -15.5t12.5 -68.5v-45q54 84 131 124t185 40q204 0 328 -147.5t124 -392.5q0 -238 -130 -381.5t-343 -143.5q-88 0 -161.5 29t-135.5 88v-197q0 -83 17 -111t65 -28q13 0 42 3t46 3q45 0 66.5 -17 t21.5 -52q0 -31 -20.5 -47.5t-59.5 -16.5l-96 7t-190 7q-55 0 -119 -7t-74 -7q-38 0 -54.5 13.5t-16.5 46.5q0 36 19 54.5t56 18.5q11 0 28 -3t24 -3q53 0 70 22q2 2 2 12q0 77 -126 618l142 294q0 121 -21 152t-78 31h-67q-38 0 -54 13t-16 42zM395 393q94 99 139 99 q41 0 41 -83q0 -24 -3 -54q-5 -43 -5 -79q0 -174 113 -174q148 0 232.5 106t84.5 292q0 182 -85.5 288.5t-229.5 106.5q-130 0 -208.5 -88.5t-78.5 -237.5v-176z" />
<glyph unicode="q" horiz-adv-x="1186" d="M80 491q0 252 122.5 400.5t329.5 148.5q108 0 185.5 -40t132.5 -124v45q0 56 14 70t72 14q48 0 60 -11t12 -62v-25l168 -355q-150 -685 -150 -776q0 -11 2 -14q21 -20 86 -20q11 0 31 3t29 3q44 0 68 -18.5t24 -53.5q0 -32 -20 -46.5t-66 -14.5q-13 0 -89.5 8t-140.5 8 q-89 0 -182 -8t-96 -8q-39 0 -59.5 16.5t-20.5 46.5q0 35 22.5 52.5t67.5 17.5q11 0 41.5 -3t50.5 -3q46 0 61 25t15 114v211q-61 -56 -136 -84.5t-163 -28.5q-216 0 -343.5 138.5t-127.5 373.5zM330 208q85 -106 233 -106q137 0 212 76t75 215v176q0 148 -79.5 237 t-209.5 89q-144 0 -229 -107q-16 -19 -16 -49q0 -130 308 -451q-74 5 -131 5q-178 0 -178 -51q0 -15 15 -34z" />
<glyph unicode="r" horiz-adv-x="1020" d="M37 51q0 35 20 52.5t62 17.5q10 0 28 -3t27 -3q62 0 80 24q2 2 1 8q0 53 -151 389l168 146q0 133 -20 164t-78 31h-63q-40 0 -57 12.5t-17 40.5q0 32 20.5 49.5t59.5 17.5q5 0 34 -3t54 -3q62 0 125 5q13 1 16 1q39 0 53.5 -16.5t14.5 -67.5l-2 -57q41 83 108.5 125.5 t157.5 42.5q125 0 206 -78.5t81 -202.5q0 -88 -43 -138t-117 -50q-53 0 -82 27t-29 75q0 29 15 47.5t46 28.5q6 2 15 4q37 8 37 47q0 42 -46 79.5t-104 37.5q-122 0 -173.5 -102t-171.5 -279l120 -264q0 -89 15.5 -115t64.5 -26q4 0 31 3t51 3q47 0 68.5 -16.5t21.5 -51.5 q0 -30 -21.5 -46.5t-60.5 -16.5q-7 0 -96.5 8t-171.5 8q-66 0 -140 -8t-81 -8q-42 0 -59 14t-17 47z" />
<glyph unicode="s" horiz-adv-x="1008" d="M-10 130q118 58 119 75q-150 18 -150 52q0 16 33 34q104 59 104 69q0 30 20.5 52t49.5 22q33 0 47 -22.5t14 -77.5v-29q0 -95 85 -152t229 -57q110 0 170.5 47t60.5 131q0 34 -19 64t-55 51q-25 15 -123.5 27t-156.5 24q-152 32 -220.5 101t-68.5 188q0 135 100 215 t271 80q81 0 148.5 -22.5t119.5 -67.5q-1 5 -1.5 10.5t-0.5 16.5q0 29 14 46t39 17q22 0 37.5 -19t15.5 -44q0 -3 -1 -15q-1 -6 -1 -11q0 -91 170 -167l-180 -96q0 -35 -14.5 -51.5t-44.5 -16.5q-31 0 -43.5 16.5t-12.5 59.5v27q1 89 -65 141q-10 8 -23 8q-65 0 -185 -232 q-67 237 -121 237q-9 0 -17 -6q-60 -44 -60 -122q0 -32 11.5 -57t33.5 -41q49 -39 194 -53q61 -5 96 -11q165 -25 240 -89.5t75 -182.5q0 -149 -108 -241.5t-284 -92.5q-97 0 -176.5 28.5t-128.5 80.5v-27q0 -40 -17 -61t-50 -21q-34 0 -49 18.5t-15 59.5q-146 19 -146 50 q-1 17 40 37z" />
<glyph unicode="t" horiz-adv-x="795" d="M-112 544l270 257q0 38 -6.5 47.5t-22.5 9.5h-78q-36 0 -52.5 16.5t-16.5 51.5q0 36 17.5 52.5t55.5 16.5h78q17 0 24 7t7 24v195q0 27 20 45t52 18t54 -18q14 -12 222 -13q101 0 248 3l-449 -224q0 -25 5 -31t24 -6h205q37 0 57.5 -17.5t20.5 -49.5q0 -36 -22 -53 t-66 -17h-195q-16 0 -22.5 -12.5t-6.5 -44.5l-175 -273q175 -328 205 -375t108 -47q67 0 104 45t37 128q0 17 -2 52t-2 52q-74 200 -74 235q0 8 3 8q7 0 27 -30q78 -116 113 -117q46 0 65 -30.5t19 -108.5q0 -181 -78 -277t-227 -96q-148 0 -212 75.5t-334 501.5z" />
<glyph unicode="u" horiz-adv-x="1356" d="M-2 940q0 30 19 44.5t57 14.5q14 0 65 -4t88 -4q21 0 55.5 4t47.5 4q38 0 48.5 -15t10.5 -91v-19v-421q0 -83 9 -83q12 0 40 144q14 70 36 70q59 0 177 -482q151 0 151 258v31q-1 16 -1 30q0 176 76 176q33 0 81 -34v174q0 93 -13 116.5t-56 23.5h-72q-42 0 -60 14.5 t-18 48.5q0 31 17.5 45t54.5 14q16 0 64 -4t79 -4q24 0 56 4t41 4q38 0 48.5 -15t10.5 -91v-19v-544q0 -139 19 -175t77 -36h68q36 0 51.5 -13t15.5 -43q0 -33 -19 -51t-54 -18q-14 0 -50 3t-59 3q-25 0 -66.5 -3t-56.5 -3q-37 0 -51 16t-14 70v76q-75 -96 -154.5 -136 t-189.5 -40q-207 0 -300.5 101.5t-93.5 332.5v323q0 94 -13.5 117t-59.5 23h-78q-45 0 -64.5 14.5t-19.5 48.5z" />
<glyph unicode="v" horiz-adv-x="1135" d="M-92 934q0 31 25 49t67 18q20 0 106 -10t152 -10q52 0 113 10t71 10q31 0 49.5 -17t18.5 -46q0 -34 -17 -50t-53 -16q-9 0 -33.5 3.5t-39.5 3.5q-17 0 -30 -15t-13 -35q0 -7 2 -16.5t6 -19.5l356 -353l109 353q4 10 6 19.5t2 16.5q0 20 -12.5 35t-28.5 15q-15 0 -40 -3.5 t-34 -3.5q-35 0 -52 16t-17 50q0 29 18 46t49 17q11 0 71.5 -10t112.5 -10q66 0 152.5 10t105.5 10q43 0 68 -18t25 -49q0 -29 -23 -45.5t-63 -16.5q-22 0 -46.5 3.5t-27.5 3.5q-68 0 -109 -106l-1 -4l-281 -722q-14 -36 -40.5 -54t-66.5 -18q-41 0 -65 16.5t-108 512.5 l-214 264q-2 5 -5 14q-38 97 -105 97q-3 0 -27 -3.5t-47 -3.5q-40 0 -63 16.5t-23 45.5z" />
<glyph unicode="w" horiz-adv-x="1683" d="M-47 966q0 31 26.5 49t73.5 18q15 0 96 -10t146 -10q58 0 132 10t89 10q41 0 64.5 -17.5t23.5 -47.5q0 -33 -22.5 -48.5t-69.5 -15.5q-14 0 -45 3.5t-49 3.5t-33 -16t-15 -36q1 -5 2.5 -14t4.5 -21l161 -675l177 764q16 69 43 96t79 27q48 0 74.5 -27.5t42.5 -95.5 l182 -764l160 675q3 12 4.5 21t1.5 14q0 20 -14.5 36t-32.5 16t-49 -3.5t-45 -3.5q-48 0 -70 15.5t-22 48.5q0 30 23.5 47.5t64.5 17.5q15 0 89 -10t132 -10q60 0 140.5 10t103.5 10q42 0 67 -17.5t25 -47.5t-22.5 -47t-61.5 -17q-20 0 -44.5 3.5t-29.5 3.5q-49 0 -72 -21 q-16 -14 -16 -255q0 -115 4 -283l-166 -80q-4 -17 -11 -45q-56 -218 -159 -218q-67 0 -102 42.5t-68 199.5l-131 623l-27 -346q-139 -436 -173.5 -477.5t-102.5 -41.5q-102 0 -158 217q-7 29 -254 374l105 200q-19 72 -43 91.5t-76 19.5q-3 0 -24.5 -3.5t-40.5 -3.5 q-41 0 -64.5 17t-23.5 45z" />
<glyph unicode="x" horiz-adv-x="1231" d="M-6 47q0 32 20 49t56 17q7 0 22.5 -4t22.5 -4q31 0 55 13t58 52l164 254l-132 377q-28 35 -56.5 50t-64.5 15q-8 0 -24 -4t-23 -4q-38 0 -60 18t-22 50q0 31 19.5 46t60.5 15q22 0 94 -8t123 -8q48 0 103.5 8t64.5 8q35 0 51.5 -13.5t16.5 -43.5q0 -37 -19 -54.5 t-59 -17.5q-9 0 -20.5 4t-14.5 4q-12 0 -19 -3.5t-7 -10.5q0 -5 4 -14t10 -17l78 -309l280 309q5 6 9 16t4 15q0 7 -7 10.5t-20 3.5q-1 0 -15.5 -4t-33.5 -4q-29 0 -46.5 17.5t-17.5 46.5q0 34 17 49.5t53 15.5q9 0 64 -8t102 -8q51 0 124 8t95 8q40 0 59 -14.5t19 -46.5 t-21.5 -50t-60.5 -18q-7 0 -23 4t-24 4q-36 0 -64.5 -15t-56.5 -50l-212 -201l249 -430q32 -38 57 -51.5t56 -13.5q7 0 22 4t23 4q36 0 55.5 -17t19.5 -49q0 -33 -17.5 -49t-53.5 -16q-23 0 -87.5 9t-105.5 9q-51 0 -121.5 -9t-91.5 -9q-38 0 -56 15t-18 46q0 36 19.5 53 t60.5 17q15 0 37.5 -4t30.5 -4q16 0 23.5 3.5t7.5 12.5q0 7 -4 13t-13 16l-173 322l-257 -322q-10 -13 -13 -18.5t-3 -10.5q0 -8 8 -12t25 -4q8 0 29.5 4t35.5 4q41 0 60.5 -17t19.5 -53q0 -31 -18 -46t-56 -15q-20 0 -91 9t-122 9q-41 0 -104.5 -9t-85.5 -9 q-37 0 -55.5 16.5t-18.5 48.5z" />
<glyph unicode="y" horiz-adv-x="1124" d="M-78 -176q0 61 35.5 99t91.5 38q44 0 72.5 -25.5t28.5 -64.5q0 -44 -45 -85q-11 -11 -11 -13q0 -15 28.5 -27t70.5 -12q57 0 105 21.5t83 62.5q48 55 72 103.5t24 88.5q0 10 -1.5 19t-4.5 18l-268 721q-3 7 -8 20q-33 91 -97 91q-3 0 -27 -3.5t-44 -3.5q-38 0 -60 17 t-22 45q0 31 25 49t69 18q15 0 95.5 -10t146.5 -10q49 0 108.5 10t69.5 10q29 0 46 -17t17 -46q0 -34 -16 -50t-49 -16q-10 0 -33 3.5t-37 3.5q-16 0 -28.5 -15t-12.5 -35q0 -7 2.5 -17.5t5.5 -18.5l221 -609l216 609q4 10 6 19.5t2 16.5q0 22 -12.5 36t-32.5 14 q-12 0 -34 -3.5t-32 -3.5q-34 0 -49.5 16t-15.5 50q0 29 17 46t46 17q10 0 68.5 -10t109.5 -10q62 0 136.5 10t86.5 10q38 0 61 -18t23 -47t-20 -46.5t-55 -17.5q-13 0 -31 3.5t-25 3.5q-61 0 -100 -105l-2 -6l-266 -721q288 -322 288 -445q0 -75 -109 -75q-34 0 -79 7 q-421 71 -582 71q-120 0 -194 60t-74 159z" />
<glyph unicode="z" horiz-adv-x="1022" d="M66 96q0 31 11.5 58t35.5 51l630 657l-455 -158q0 142 -22 142q-2 0 -6 -2q-28 -18 -27 -68q0 -18 3.5 -45.5t3.5 -36.5q0 -38 -17.5 -58t-50.5 -20q-30 0 -45.5 20t-15.5 58q0 20 2 59t2 58v61q0 78 17.5 100.5t72.5 22.5q18 0 56.5 -3t57.5 -3h41h357q13 0 47 3t55 3 q62 0 91.5 -22t29.5 -68q0 -23 -12 -46t-240 -467l-438 -247h440q78 0 107.5 22t29.5 77q0 30 -3 70.5t-3 50.5q0 44 17 68t49 24q33 0 47 -22t14 -73q0 -11 -2 -76t-2 -118v-96q0 -42 -24.5 -60t-83.5 -18q-1 0 -27.5 3t-54.5 3l-226 -240q-394 240 -428 263.5t-34 72.5z " />
<glyph unicode="{" d="M172 467v127q8 0 23 -1t22 -1q134 0 189 61.5t55 214.5v244q0 153 22.5 215.5t77.5 97.5q42 28 102 40t160 12h35v-127q-8 0 -23 1t-22 1q-121 0 -164 -47t-43 -197v-242q0 -166 -43.5 -235.5t-154.5 -100.5q111 -30 154.5 -99.5t43.5 -235.5v-242q0 -149 43.5 -195.5 t169.5 -46.5h39v-125h-35q-99 0 -159.5 12t-102.5 40q-55 36 -77.5 100t-22.5 213v244q0 152 -55 213t-189 61q-7 0 -22 -1t-23 -1z" />
<glyph unicode="|" d="M449 -483v2048h126v-2048h-126z" />
<glyph unicode="}" d="M166 -289q8 0 23 -1t22 -1q120 0 163.5 47.5t43.5 198.5v240q0 166 43.5 235.5t154.5 99.5q-111 31 -154.5 100.5t-43.5 235.5v242q0 149 -44 196.5t-169 47.5h-39v125h35q100 0 161 -12.5t103 -39.5q54 -35 76 -98t22 -215v-244q0 -152 55.5 -214t190.5 -62q7 0 22 1 t23 1v-127q-8 0 -23 1t-22 1q-135 0 -190.5 -62t-55.5 -214v-242q0 -153 -22 -216.5t-76 -99.5q-39 -26 -97.5 -37.5t-160.5 -11.5h-41v125z" />
<glyph unicode="~" horiz-adv-x="1706" d="M178 461v133q105 73 202 109t185 36q56 0 116.5 -12.5t174.5 -52.5q14 -5 44 -16q158 -58 245 -58q84 0 174.5 37t210.5 121v-131q-101 -72 -197.5 -108t-189.5 -36q-43 0 -90.5 9t-100.5 26q-30 10 -87 31q-202 72 -302 72q-83 0 -173.5 -37.5t-211.5 -122.5z" />
<glyph unicode="&#xa1;" horiz-adv-x="645" d="M199 1268q0 51 36 88t87 37t86.5 -36.5t35.5 -88.5q0 -53 -35 -88t-87 -35q-53 0 -88 35t-35 88zM221 82v12l33 826q2 56 16.5 75t51.5 19q36 0 50.5 -19t16.5 -75l33 -826v-12q0 -53 -27 -84t-73 -31q-47 0 -74 31t-27 84z" />
<glyph unicode="&#xa2;" horiz-adv-x="1290" d="M229 686q0 201 105.5 325t283.5 132v172q0 31 13.5 45t42.5 14q25 0 38 -15t13 -44v-170q147 -9 237.5 -83t90.5 -183q0 -68 -40.5 -109t-107.5 -41q-47 0 -73.5 23.5t-26.5 64.5q0 45 40 71.5t40 33.5q0 38 -45 70t-115 40v-686q53 8 96.5 39.5t79.5 87.5q15 24 32 68 q28 71 68 71q29 0 48.5 -18.5t19.5 -46.5q0 -112 -102 -210t-242 -108v-172q0 -41 -12 -57t-41 -16q-30 0 -42 15.5t-12 57.5v168q-181 13 -285 135.5t-104 325.5zM379 674q0 -137 64.5 -226t174.5 -106v688q-119 -24 -179 -113.5t-60 -242.5z" />
<glyph unicode="&#xa3;" horiz-adv-x="1290" d="M-8 215q0 105 70.5 171.5t183.5 66.5q60 0 128 -25.5t156 -81.5q9 25 12 39.5t3 26.5q0 47 -28.5 120.5t-92.5 192.5h-105q-44 0 -95.5 -6t-57.5 -6q-34 0 -53 14.5t-19 40.5q0 30 21.5 45.5t62.5 15.5q18 0 70.5 -6t85.5 -6h55q-28 55 -41.5 105t-13.5 100 q0 156 105 256t270 100q142 0 238.5 -82t96.5 -200q0 -70 -33 -111t-89 -41q-45 0 -75 27t-30 65q0 31 18.5 55t53.5 37q-11 59 -64 96.5t-127 37.5q-89 0 -147.5 -61.5t-58.5 -156.5q0 -46 13.5 -102t41.5 -125h117q84 0 168 11q15 1 18 1q34 0 53 -14.5t19 -40.5 q0 -30 -22 -45.5t-62 -15.5q-15 0 -74 6t-102 6h-64q55 -97 79.5 -165t24.5 -122q0 -40 -9 -81t-27 -85q100 -74 171.5 -108.5t123.5 -34.5q74 0 118.5 50.5t44.5 135.5q0 60 -29.5 104t-78.5 56q-17 -30 -39.5 -45.5t-50.5 -15.5q-41 0 -68 28t-27 70q0 52 42.5 88.5 t105.5 36.5q115 0 203 -99t88 -235q0 -144 -92.5 -237t-235.5 -93q-78 0 -165.5 38t-194.5 120q-63 -80 -139.5 -119t-170.5 -39q-127 0 -203.5 66.5t-76.5 175.5zM129 215q0 -48 40 -76t110 -28q51 0 98.5 24t95.5 76q-78 54 -131 77t-96 23q-54 0 -85.5 -26t-31.5 -70z " />
<glyph unicode="&#xa5;" horiz-adv-x="1407" d="M-82 1292q0 30 27.5 52t64.5 22q11 0 54 -4q155 -16 290 -16q58 0 122 10t71 10q40 0 63 -21t23 -57q0 -32 -21.5 -51.5t-56.5 -19.5q-12 0 -43 4t-51 4q-35 0 -54.5 -9t-19.5 -24q0 -14 4.5 -27.5t18.5 -36.5l286 -475l289 475q12 22 16.5 36.5t4.5 27.5q0 16 -19 24.5 t-53 8.5q-20 0 -52 -4t-44 -4q-35 0 -55.5 19t-20.5 52q0 37 22 57.5t62 20.5q7 0 72 -10t122 -10q136 0 289 15q45 5 55 5q38 0 64.5 -22t26.5 -52t-20.5 -52.5t-47.5 -22.5q-35 0 -76 6q-10 2 -12 2q-45 0 -75.5 -18.5t-72.5 -82.5l-157 -245h276q33 0 46.5 -9t13.5 -30 q0 -23 -12.5 -32t-47.5 -9h-334l-131 -203h465q33 0 46.5 -9t13.5 -30q0 -22 -12.5 -31.5t-47.5 -9.5h-518v-272q0 -61 26.5 -89t84.5 -28q21 0 59 6t53 6q34 0 55 -20.5t21 -52.5q0 -40 -21 -59t-65 -19q-5 0 -102.5 10t-190.5 10q-87 0 -181.5 -10t-102.5 -10 q-44 0 -65 19t-21 59q0 32 21.5 52.5t55.5 20.5q16 0 52.5 -6t58.5 -6q57 0 84 28t27 89v272h-519q-31 0 -44 9.5t-13 31.5t11 30.5t46 8.5h467l-135 203h-332q-31 0 -44 9.5t-13 31.5t11 30.5t46 8.5h279l-158 245q-40 63 -71 82t-76 19q-2 0 -13 -2q-40 -6 -75 -6 q-27 0 -48.5 22.5t-21.5 52.5z" />
<glyph unicode="&#xa7;" d="M84 606q0 97 45.5 169.5t138.5 123.5q-45 41 -67.5 87.5t-22.5 100.5q0 136 94 222t244 86q53 0 104.5 -20.5t98.5 -59.5v10q0 36 17.5 58t45.5 22q31 0 52.5 -17.5t21.5 -39.5q0 -4 -1 -18q-9 -85 -9 -173q0 -76 8 -151q2 -16 2 -19q0 -37 -18 -54.5t-56 -17.5 q-41 0 -59 25t-18 82v22q0 99 -53 155t-146 56q-71 0 -115.5 -40.5t-44.5 -106.5q0 -54 40 -97.5t177 -121.5l172 -98q99 -57 152 -137t53 -173q0 -95 -51.5 -171t-143.5 -115q50 -41 75.5 -94t25.5 -117q0 -127 -100 -214t-246 -87q-78 0 -140.5 21.5t-111.5 66.5v-17 q0 -37 -17.5 -58.5t-46.5 -21.5q-31 0 -53 16.5t-22 39.5q0 3 1 17q9 87 9 175q0 75 -9 150q-1 14 -1 18q0 37 18 55.5t53 18.5q44 0 63 -25t19 -82q0 -4 -1 -11.5t-1 -10.5q0 -101 59.5 -161t159.5 -60q85 0 143 44.5t58 108.5q0 99 -179 209q-26 16 -41 25l-175 110 q-109 69 -155 137.5t-46 157.5zM236 649q0 -55 33.5 -100t152.5 -123l237 -156q56 30 88.5 77.5t32.5 98.5q0 61 -40.5 112.5t-143.5 115.5l-234 147q-63 -32 -94.5 -75t-31.5 -97z" />
<glyph unicode="&#xa8;" d="M207 1303q0 45 33.5 78.5t78.5 33.5q47 0 80 -33t33 -79q0 -50 -31.5 -81.5t-81.5 -31.5q-49 0 -80.5 31.5t-31.5 81.5zM592 1303q0 45 33.5 78.5t79.5 33.5t79 -33t33 -79q0 -50 -31.5 -81.5t-80.5 -31.5t-81 32t-32 81z" />
<glyph unicode="&#xa9;" horiz-adv-x="1706" d="M119 725q0 145 56.5 279.5t162.5 242.5q102 104 234 158.5t280 54.5q151 0 285 -55t239 -160q102 -102 156.5 -236t54.5 -284q0 -151 -54 -283t-157 -233q-109 -106 -244.5 -162.5t-279.5 -56.5q-146 0 -278 55.5t-238 161.5q-106 105 -161.5 238.5t-55.5 279.5zM207 725 q0 -127 49 -244t141 -211q93 -92 209.5 -141t245.5 -49t248.5 50t214.5 142q91 90 138.5 205.5t47.5 247.5q0 130 -49 249t-139 210q-92 92 -210 140t-251 48q-132 0 -247.5 -47.5t-205.5 -138.5q-93 -95 -142.5 -214t-49.5 -247zM465 721q0 208 107.5 332.5t287.5 124.5 q137 0 230 -74.5t104 -192.5h-129q-15 77 -70.5 120.5t-138.5 43.5q-117 0 -182.5 -92.5t-65.5 -259.5q0 -160 66.5 -252t181.5 -92q87 0 145.5 48.5t73.5 133.5h129q-11 -127 -109 -207t-245 -80q-176 0 -280.5 121t-104.5 326z" />
<glyph unicode="&#xaa;" horiz-adv-x="850" d="M37 872q0 93 58 141t194 66q6 1 19 3q224 29 224 118q0 57 -42 88t-119 31q-64 0 -111 -19.5t-47 -42.5q0 -4 18.5 -23.5t18.5 -39.5q0 -28 -22.5 -47t-55.5 -19q-42 0 -66 25.5t-24 71.5q0 80 83 130t220 50q143 0 205.5 -57t62.5 -187v-323q0 -50 10.5 -66t36.5 -16 q29 0 41.5 17t12.5 58v72q0 29 11 43.5t34 14.5q24 0 34.5 -14t10.5 -48v-104q0 -62 -41.5 -96.5t-114.5 -34.5q-59 0 -92.5 28t-36.5 80q-45 -54 -112 -81t-156 -27q-123 0 -188.5 53.5t-65.5 154.5zM150 866q0 -48 40 -79t103 -31q113 0 180.5 49.5t67.5 132.5v111 q-26 -20 -65.5 -31t-139.5 -23q-111 -14 -148.5 -42.5t-37.5 -86.5z" />
<glyph unicode="&#xab;" horiz-adv-x="1028" d="M100 512q0 6 3.5 15t8.5 15l232 279q15 19 30 26t48 7q31 0 45 -10t14 -31q0 -23 -31 -62q-6 -7 -10 -12l-152 -191q-7 -8 -11.5 -18.5t-4.5 -17.5q0 -6 4.5 -15t12.5 -20l151 -192q4 -5 10 -12q31 -39 31 -62q0 -21 -13.5 -30t-45.5 -9q-36 0 -50 6.5t-28 24.5l-231 280 q-6 8 -9.5 15.5t-3.5 13.5zM508 512q0 7 3.5 15.5t8.5 15.5l232 278q15 19 29.5 26t47.5 7q31 0 45.5 -10t14.5 -31q0 -23 -32 -62l-9 -12l-150 -190q-8 -10 -13 -20t-5 -17q0 -5 4 -12.5t14 -22.5l150 -192l9 -12q32 -39 32 -62q0 -21 -14 -30t-46 -9q-35 0 -49.5 7 t-27.5 23l-232 281q-6 8 -9 15.5t-3 13.5z" />
<glyph unicode="&#xac;" horiz-adv-x="1706" d="M254 741v117h1198v-502h-115v385h-1083z" />
<glyph unicode="&#xad;" horiz-adv-x="674" d="M56 488q48 63 60 135.5t52 -37.5h364q34 0 49 -17.5t51 -160.5q-36 66 -134 -11t34 41h-364q-33 0 -48.5 17.5t-63.5 32.5z" />
<glyph unicode="&#xae;" horiz-adv-x="1706" d="M119 725q0 147 57 282t164 242q101 103 232 157t280 54q150 0 284 -55.5t240 -161.5q102 -102 156.5 -235.5t54.5 -282.5q0 -151 -54.5 -283t-158.5 -233q-109 -106 -243.5 -162.5t-278.5 -56.5q-145 0 -278.5 56t-239.5 163q-105 104 -160 237t-55 279zM207 725 q0 -127 49 -244t141 -211q91 -92 208 -141t245 -49q131 0 249.5 48.5t213.5 141.5q91 90 139.5 206t48.5 245q0 133 -48 251.5t-138 209.5q-94 93 -211.5 141.5t-251.5 48.5q-132 0 -247 -47t-204 -137q-94 -95 -144 -214t-50 -249zM561 317v840h311q178 0 264.5 -57 t86.5 -174q0 -89 -53 -148.5t-144 -75.5l188 -385h-157l-176 365h-179v-365h-141zM702 774h148q123 0 175 33t52 108q0 79 -54.5 114.5t-176.5 35.5h-144v-291z" />
<glyph unicode="&#xaf;" d="M244 1303q0 40 13.5 54.5t51.5 14.5h406q39 0 52 -14.5t13 -54.5q0 -41 -13 -55.5t-52 -14.5h-406q-38 0 -51.5 15t-13.5 55z" />
<glyph unicode="&#xb0;" horiz-adv-x="674" d="M55 1171q0 119 82.5 201t200.5 82q117 0 200 -83t83 -200q0 -116 -83.5 -199t-201.5 -83t-199.5 82t-81.5 200zM135 1171q0 -84 59.5 -143t143.5 -59t142.5 59t58.5 143t-58.5 142.5t-142.5 58.5t-143.5 -58.5t-59.5 -142.5z" />
<glyph unicode="&#xb1;" horiz-adv-x="1706" d="M254 41v117h1198v-117h-1198zM254 719v117h541v344h118v-344h539v-117h-539v-344h-118v344h-541z" />
<glyph unicode="&#xb4;" d="M330 1159q0 9 33 43l43 43l159 168q48 52 76.5 70t56.5 18q31 0 52.5 -22.5t21.5 -55.5q0 -48 -108 -115l-2 -1l-193 -121l-11 -7q-71 -44 -93 -44q-14 0 -24.5 7.5t-10.5 16.5z" />
<glyph unicode="&#xb5;" horiz-adv-x="1128" d="M-111 -426l316 1495h157l-126 -595q-8 -33 -11.5 -67t-3.5 -71q0 -109 57 -168t160 -59q125 0 208 101t128 308l121 551h156l-162 -754q-12 -52 -17.5 -84t-5.5 -51q0 -32 18.5 -48.5t53.5 -16.5q9 0 17.5 0.5t17.5 1.5l-27 -125q-21 -5 -44 -7.5t-48 -2.5 q-70 0 -104.5 35t-40.5 112q-41 -70 -117 -108.5t-172 -38.5q-87 0 -152.5 34t-109.5 103l-113 -545h-156z" />
<glyph unicode="&#xb6;" d="M76 1130q0 157 107.5 253t285.5 96h479v-78h-125v-1401h-94v1401h-182v-1401h-96v782q-173 8 -274 102.5t-101 245.5z" />
<glyph unicode="&#xb7;" horiz-adv-x="645" d="M199 686q0 52 35 87.5t88 35.5q52 0 88 -36.5t36 -88.5q0 -50 -36.5 -86.5t-87.5 -36.5q-52 0 -87.5 36.5t-35.5 88.5z" />
<glyph unicode="&#xb8;" d="M252 -342q0 25 16.5 41t42.5 16q15 0 90.5 -41t145.5 -41q47 0 76.5 25t29.5 63q0 40 -26.5 64.5t-71.5 24.5q-19 0 -42.5 -4.5t-27.5 -4.5q-10 1 -18 8.5t-8 16.5q0 3 3 16q16 76 18 158h65v-92q0 -7 4.5 -13t9.5 -6q10 0 24.5 1t18.5 1q89 0 140 -44.5t51 -122.5 q0 -83 -60.5 -130t-167.5 -47q-128 0 -220.5 34t-92.5 77z" />
<glyph unicode="&#xba;" horiz-adv-x="879" d="M57 1034q0 171 102.5 271t278.5 100q178 0 280.5 -99.5t102.5 -271.5t-102.5 -271t-282.5 -99q-173 0 -276 100.5t-103 269.5zM178 1034q0 -132 68.5 -204t193.5 -72q120 0 189 73.5t69 202.5q0 131 -68.5 205t-189.5 74q-122 0 -192 -74t-70 -205z" />
<glyph unicode="&#xbb;" horiz-adv-x="1028" d="M150 211q0 23 31 62q6 7 9 11l150 193q8 10 13 20t5 17q0 5 -3.5 12.5t-14.5 22.5l-150 191q-3 4 -9 11q-31 39 -31 62q0 21 14 31t45 10q33 0 48 -7t30 -26l231 -278q6 -8 9 -16t3 -15q0 -6 -3 -13.5t-9 -15.5l-231 -280q-15 -18 -29 -24.5t-49 -6.5q-32 0 -45.5 9 t-13.5 30zM553 211q0 21 30 58q9 11 13 16l150 193q7 8 11.5 18.5t4.5 17.5q0 6 -4 15t-13 20l-149 190q-4 5 -13 16q-30 37 -30 58t14 31t45 10q34 0 48.5 -7t29.5 -26l232 -279q5 -6 8.5 -15t3.5 -15t-3 -13.5t-9 -15.5l-232 -280q-13 -17 -27.5 -24t-50.5 -7 q-32 0 -45.5 9t-13.5 30z" />
<glyph unicode="&#xbf;" horiz-adv-x="1124" d="M74 340q0 79 25 141t73 103q74 64 182.5 114.5t120.5 59.5q47 34 65 66.5t23 90.5q0 3 1 8q6 105 75 105q36 0 56 -23.5t20 -66.5q0 -105 -32.5 -167.5t-121.5 -121.5q-41 -27 -121 -71t-108 -66q-52 -43 -72 -82t-20 -92q0 -112 86.5 -177t236.5 -65q144 0 240 69 t96 169q0 27 -10 44.5t-31 24.5q-9 -32 -30.5 -48.5t-53.5 -16.5q-36 0 -60 23t-24 59q0 62 47 104.5t115 42.5q85 0 137.5 -61.5t52.5 -161.5q0 -163 -136.5 -268t-354.5 -105q-220 0 -348.5 100t-128.5 269zM494 1270q0 52 35.5 88.5t86.5 36.5q53 0 89 -36.5t36 -88.5 q0 -51 -37 -87t-88 -36q-52 0 -87 35.5t-35 87.5z" />
<glyph unicode="&#xc0;" horiz-adv-x="1464" d="M-56 93q0 30 21 52t47 22q13 0 35 -4t30 -4q71 0 104 27.5t243 693.5l188 405q29 75 59 101t78 26q57 0 58 -182t361 -550l87 -392q97 200 94.5 35.5t55.5 -164.5q7 0 21 4t20 4q62 0 84 -17t22 -57q0 -31 -26 -52t-64 -21q-12 0 -54 2q-155 10 -290 10q-56 0 -125 -6 t-82 -6q-39 0 -58.5 19t-19.5 56q0 35 22 53.5t1 171.5q74 -153 108.5 -157t55.5 -4q26 0 42.5 18t16.5 48q0 16 -3 33.5t-9 33.5l-53 163q-9 28 -29.5 46t-248.5 -69l-194 87q-21 0 -35.5 -15t-25.5 -48l23 -208q-85 25 -89 3t-4 -43q0 -20 19.5 -34.5t48.5 -14.5 q22 0 57 4t72 181q20 -177 42.5 -195.5t22.5 -53.5q0 -37 -20.5 -56t-61.5 -19q-13 0 -86 6t-133 6q-188 -120 -262.5 -66t-75.5 54q-38 0 -64 21t-26 52zM545 1786q0 33 21.5 56.5t51.5 23.5q46 0 147 -179q-18 95 -16 93l162 -162q8 -7 21 -21q57 -56 57 -65t-10.5 -16.5 t-24.5 -7.5q-26 0 -103 47q-2 1 -3 2l-190 116q-6 4 -16 10q-97 58 -97 103zM553 637q0 -12 9 -16.5t40 -4.5h262q29 1 38 5.5t9 17.5q0 7 -75.5 104t67.5 -65l-239 514l-101 -514q-7 -21 -8.5 -28.5t-1.5 -12.5z" />
<glyph unicode="&#xc1;" horiz-adv-x="1464" d="M-56 93q0 30 21 52t47 22q13 0 35 -4t30 -4q71 0 104 27.5t243 693.5l188 405q29 75 59 101t78 26q57 0 58 -182t361 -550l87 -392q97 200 94.5 35.5t55.5 -164.5q7 0 21 4t20 4q62 0 84 -17t22 -57q0 -31 -26 -52t-64 -21q-12 0 -54 2q-155 10 -290 10q-56 0 -125 -6 t-82 -6q-39 0 -58.5 19t-19.5 56q0 35 22 53.5t1 171.5q74 -153 108.5 -157t55.5 -4q26 0 42.5 18t16.5 48q0 16 -3 33.5t-9 33.5l-53 163q-9 28 -29.5 46t-248.5 -69l-194 87q-21 0 -35.5 -15t-25.5 -48l23 -208q-85 25 -89 3t-4 -43q0 -20 19.5 -34.5t48.5 -14.5 q22 0 57 4t72 181q20 -177 42.5 -195.5t22.5 -53.5q0 -37 -20.5 -56t-61.5 -19q-13 0 -86 6t-133 6q-188 -120 -262.5 -66t-75.5 54q-38 0 -64 21t-26 52zM551 1526q0 9 33 43l43 43l159 168q48 52 76.5 70t56.5 18q31 0 52.5 -22.5t21.5 -55.5q0 -48 -108 -115l-2 -1 l-193 -121l-11 -7q-71 -44 -93 -44q-14 0 -24.5 7.5t-10.5 16.5zM553 637q0 -12 9 -16.5t40 -4.5h262q29 1 38 5.5t9 17.5q0 7 -75.5 104t67.5 -65l-239 514l-101 -514q-7 -21 -8.5 -28.5t-1.5 -12.5z" />
<glyph unicode="&#xc2;" horiz-adv-x="1464" d="M-56 93q0 30 21 52t47 22q13 0 35 -4t30 -4q71 0 104 27.5t243 693.5l188 405q29 75 59 101t78 26q57 0 58 -182t361 -550l87 -392q97 200 94.5 35.5t55.5 -164.5q7 0 21 4t20 4q62 0 84 -17t22 -57q0 -31 -26 -52t-64 -21q-12 0 -54 2q-155 10 -290 10q-56 0 -125 -6 t-82 -6q-39 0 -58.5 19t-19.5 56q0 35 22 53.5t1 171.5q74 -153 108.5 -157t55.5 -4q26 0 42.5 18t16.5 48q0 16 -3 33.5t-9 33.5l-53 163q-9 28 -29.5 46t-248.5 -69l-194 87q-21 0 -35.5 -15t-25.5 -48l23 -208q-85 25 -89 3t-4 -43q0 -20 19.5 -34.5t48.5 -14.5 q22 0 57 4t72 181q20 -177 42.5 -195.5t22.5 -53.5q0 -37 -20.5 -56t-61.5 -19q-13 0 -86 6t-133 6q-188 -120 -262.5 -66t-75.5 54q-38 0 -64 21t-26 52zM454 1516q0 23 38 76l10 15l123 178q6 9 14 22q29 47 94 47t94 -47q8 -13 14 -22l121 -179q6 -7 15 -20 q35 -48 35 -70q-1 -10 -6.5 -14t-18.5 -5q-41 0 -85 50q-7 7 -11 12l-111 113q-15 14 -27 22t-20 8t-20 -8t-27 -22l-111 -113q-4 -5 -11 -12q-44 -50 -85 -50q-13 1 -18.5 5t-6.5 14zM553 637q0 -12 9 -16.5t40 -4.5h262q29 1 38 5.5t9 17.5q0 7 -75.5 104t67.5 -65 l-239 514l-101 -514q-7 -21 -8.5 -28.5t-1.5 -12.5z" />
<glyph unicode="&#xc3;" horiz-adv-x="1464" d="M-56 93q0 30 21 52t47 22q13 0 35 -4t30 -4q71 0 104 27.5t243 693.5l188 405q29 75 59 101t78 26q57 0 58 -182t361 -550l87 -392q97 200 94.5 35.5t55.5 -164.5q7 0 21 4t20 4q62 0 84 -17t22 -57q0 -31 -26 -52t-64 -21q-12 0 -54 2q-155 10 -290 10q-56 0 -125 -6 t-82 -6q-39 0 -58.5 19t-19.5 56q0 35 22 53.5t1 171.5q74 -153 108.5 -157t55.5 -4q26 0 42.5 18t16.5 48q0 16 -3 33.5t-9 33.5l-53 163q-9 28 -29.5 46t-248.5 -69l-194 87q-21 0 -35.5 -15t-25.5 -48l23 -208q-85 25 -89 3t-4 -43q0 -20 19.5 -34.5t48.5 -14.5 q22 0 57 4t72 181q20 -177 42.5 -195.5t22.5 -53.5q0 -37 -20.5 -56t-61.5 -19q-13 0 -86 6t-133 6q-188 -120 -262.5 -66t-75.5 54q-38 0 -64 21t-26 52zM450 1577q0 19 15.5 51t46.5 78q24 37 56.5 54.5t76.5 17.5q18 0 34 -2t31 -6l107 -27q11 -3 22.5 -4.5t22.5 -1.5 q25 0 43 8t29 23q6 8 13 26q12 31 34 31q14 0 22.5 -9t8.5 -24q0 -17 -18 -57.5t-44 -75.5q-22 -31 -54.5 -47t-72.5 -16q-14 0 -26.5 1.5t-26.5 4.5l-107 27q-17 4 -30.5 6t-22.5 2q-35 0 -53 -10t-33 -37q-3 -6 -7 -15q-11 -26 -32 -26q-15 0 -25 8t-10 20zM553 637 q0 -12 9 -16.5t40 -4.5h262q29 1 38 5.5t9 17.5q0 7 -75.5 104t67.5 -65l-239 514l-101 -514q-7 -21 -8.5 -28.5t-1.5 -12.5z" />
<glyph unicode="&#xc4;" horiz-adv-x="1464" d="M-56 93q0 30 21 52t47 22q13 0 35 -4t30 -4q71 0 104 27.5t243 693.5l188 405q29 75 59 101t78 26q57 0 58 -182t361 -550l87 -392q97 200 94.5 35.5t55.5 -164.5q7 0 21 4t20 4q62 0 84 -17t22 -57q0 -31 -26 -52t-64 -21q-12 0 -54 2q-155 10 -290 10q-56 0 -125 -6 t-82 -6q-39 0 -58.5 19t-19.5 56q0 35 22 53.5t1 171.5q74 -153 108.5 -157t55.5 -4q26 0 42.5 18t16.5 48q0 16 -3 33.5t-9 33.5l-53 163q-9 28 -29.5 46t-248.5 -69l-194 87q-21 0 -35.5 -15t-25.5 -48l23 -208q-85 25 -89 3t-4 -43q0 -20 19.5 -34.5t48.5 -14.5 q22 0 57 4t72 181q20 -177 42.5 -195.5t22.5 -53.5q0 -37 -20.5 -56t-61.5 -19q-13 0 -86 6t-133 6q-188 -120 -262.5 -66t-75.5 54q-38 0 -64 21t-26 52zM428 1670q0 45 33.5 78.5t78.5 33.5q47 0 80 -33t33 -79q0 -50 -31.5 -81.5t-81.5 -31.5q-49 0 -80.5 31.5 t-31.5 81.5zM553 637q0 -12 9 -16.5t40 -4.5h262q29 1 38 5.5t9 17.5q0 7 -75.5 104t67.5 -65l-239 514l-101 -514q-7 -21 -8.5 -28.5t-1.5 -12.5zM813 1670q0 45 33.5 78.5t79.5 33.5t79 -33t33 -79q0 -50 -31.5 -81.5t-80.5 -31.5t-81 32t-32 81z" />
<glyph unicode="&#xc5;" horiz-adv-x="1464" d="M-72 61q0 30 21 52t47 22q13 0 35 -5t30 -5q69 0 103 28t61 103l371 997q29 75 59 101t78 26q57 0 87.5 -25t62.5 -110l356 -989q26 -74 59.5 -102.5t90.5 -28.5q7 0 21 5t20 5q62 0 84 -17t22 -57q0 -31 -26 -52t-64 -21q-12 0 -54 4q-155 16 -290 16q-56 0 -125 -10 t-82 -10q-39 0 -58.5 19t-19.5 56q0 35 22 53.5t62 18.5q13 0 47.5 -5t55.5 -5q26 0 42.5 18.5t16.5 49.5q0 16 -3 33.5t-9 33.5l-53 163q-9 28 -29.5 46t-42.5 18h-400q-21 0 -35.5 -15t-25.5 -48l-55 -163q-7 -20 -11 -42t-4 -43t20 -36t48 -15q22 0 57 5t49 5 q43 0 65.5 -18.5t22.5 -53.5q0 -37 -20.5 -56t-61.5 -19q-13 0 -86 10t-133 10q-113 0 -225 -10t-113 -10q-38 0 -64 21t-26 52zM492 1688q0 104 71.5 175.5t175.5 71.5q105 0 176.5 -71.5t71.5 -175.5q0 -105 -71.5 -176.5t-176.5 -71.5q-104 0 -175.5 71.5t-71.5 176.5z M553 639q0 -13 10 -18t39 -5h262q29 0 38 5.5t9 19.5q0 7 -2 17t-6 22l-162 504l-178 -504q-7 -21 -8.5 -28.5t-1.5 -12.5zM596 1688q0 -60 41.5 -102t101.5 -42t101 41.5t41 102.5q0 59 -41 100t-101 41t-101.5 -41t-41.5 -100z" />
<glyph unicode="&#xc6;" horiz-adv-x="2052" d="M-115 66q0 35 21.5 55t58.5 20q10 0 34 -4t38 -4q36 0 64.5 23t78.5 102l594 928q2 3 3 6t1 10q0 22 -21.5 31.5t-70.5 9.5q-12 0 -43 -4t-51 -4q-34 0 -55 20t-21 52q0 37 22 56t64 19q8 0 40 -3q120 -13 226 -13h754q107 0 202 5q13 1 15 1q45 0 70.5 -26t25.5 -72 q0 -25 -6 -81t-6 -87q0 -61 6 -136t6 -89q0 -40 -18 -63t-49 -23q-34 0 -58 26t-24 64q0 18 6 74.5t6 93.5q0 103 -38.5 139.5t-162.5 36.5h-305q-68 0 -90 -23t-22 -114v-312q0 -30 14.5 -40.5t60.5 -10.5h45q134 0 162.5 24t28.5 103q0 20 -3 59.5t-3 57.5q0 36 18 58 t49 22q33 0 48.5 -33t15.5 -100q0 -32 -6 -113t-6 -125q0 -66 6 -141.5t6 -91.5q0 -48 -17 -74.5t-47 -26.5q-27 0 -47 18.5t-20 43.5q0 17 3 41t3 30q0 85 -27.5 110t-152.5 25h-68q-37 0 -50 -11t-13 -42v-289q0 -93 23.5 -117t88.5 -24h332q119 0 160 37.5t41 142.5 q0 37 -6.5 93t-6.5 75q0 38 23.5 64t56.5 26q32 0 51 -23.5t19 -62.5q0 -14 -6 -89t-6 -136q0 -31 6 -87t6 -81q0 -46 -27 -73t-71 -27q-3 0 -15 1q-93 7 -200 7h-578q-109 0 -227 -7q-26 -1 -33 -1q-45 0 -65.5 18.5t-20.5 59.5q0 31 21 51t53 20q10 0 47.5 -4t64.5 -4 q49 0 73 28t24 87v338q0 12 -8 21t-17 9h-332q-34 0 -60.5 -14t-43.5 -41l-224 -359q-5 -8 -8.5 -17t-3.5 -15q0 -18 15 -27.5t45 -9.5q11 0 38.5 4t45.5 4q49 0 78.5 -21.5t29.5 -56.5q0 -33 -27 -52t-73 -19q-18 0 -106.5 8t-159.5 8q-53 0 -126 -8t-94 -8q-50 0 -71 16.5 t-21 57.5zM635 717q36 6 71 9t66 3h203q14 0 23.5 11t9.5 28v397q0 22 -6.5 32.5t-20.5 10.5q-8 0 -20 -11t-25 -32l-229 -362q-6 -10 -22.5 -30t-49.5 -56z" />
<glyph unicode="&#xc7;" horiz-adv-x="1319" d="M86 682q0 326 165 519.5t441 193.5q118 0 215.5 -40.5t159.5 -115.5v43q0 58 14 79t49 21t51.5 -16.5t16.5 -50.5q0 -7 122 -99q24 -168 -136 -202q0 -29 7 -79t7 -73q0 -50 -16 -70t-56 -20q-39 0 -56 25.5t-17 85.5l-261 -179q261 371 166.5 463.5t-241.5 92.5 q-201 0 -319.5 -153.5t-118.5 -414.5q313 284 165 12t269 -589q131 0 219 56t131 169q14 36 22.5 96t12.5 77q5 20 23.5 33t43.5 13q38 0 59 -26.5t21 -75.5q51 -401 -119 -443.5t-415 -42.5q-291 0 -458 190.5t-167 520.5zM434 -342q0 25 16.5 41t42.5 16q15 0 90.5 -41 t145.5 -41q47 0 76.5 25t29.5 63q0 40 -26.5 64.5t-71.5 24.5q-19 0 -42.5 -4.5t-27.5 -4.5q-10 1 -18 8.5t-8 16.5q0 3 3 16q16 76 18 158h65v-92q0 -7 4.5 -13t9.5 -6q10 0 24.5 1t18.5 1q89 0 140 -44.5t51 -122.5q0 -83 -60.5 -130t-167.5 -47q-128 0 -220.5 34 t-92.5 77z" />
<glyph unicode="&#xc8;" horiz-adv-x="1436" d="M41 68q0 32 20.5 52.5t53.5 20.5q15 0 50.5 -4t55.5 -4q-125 147 -3 101.5t-114 629.5l236 260q0 62 -26.5 90.5t-84.5 28.5q-21 0 -59 -7t-53 -7q-33 0 -54.5 21t-21.5 53q0 37 22 55t66 18q27 0 122.5 -6t162.5 -6h114h426q108 0 203 11q12 1 14 1q44 0 70.5 -27.5 t26.5 -74.5q0 -25 -6.5 -81t218.5 -41q-225 -107 -218.5 -182t6.5 -89q0 -40 -18.5 -63t-49.5 -23q-33 0 -56.5 26t-23.5 64q0 18 5 74.5t5 93.5q0 103 -38.5 139.5t-161.5 36.5h-303q-71 0 -93 -26t-22 -111l-128 -124q128 -152 148 -169t72 -17q138 0 177.5 24t39.5 103 q0 14 -2 50.5t-2 58.5q0 35 19 57.5t49 22.5q31 0 47 -31t16 -90q0 -22 -6 -102.5t218 -122.5q-224 -75 -136 -117.5t-76 -140.5q0 -58 -16.5 -89.5t-115.5 -92.5q40 61 20.5 81t-19.5 49q0 25 2 55.5t2 34.5q0 104 -35 129t-190 25q-47 0 -173.5 45t-46.5 -227l136 -230 q0 -91 23 -116t92 -25h329q121 0 161 37.5t40 142.5q0 37 -6 93t-6 75q0 38 23.5 64t56.5 26q31 0 50 -23.5t19 -62.5q0 -14 -6 -89t-6 -136q0 -31 6 -87t144 -85q-138 -42 -165 -70t-71 -28q-3 0 -14 1q-94 9 -201 9h-578q-111 0 -234 -8q-32 -2 -40 -2q-46 0 -67 18.5 t-21 59.5zM564 1786q0 33 21.5 56.5t51.5 23.5q46 0 147 -179q-18 95 -16 93l162 -162q8 -7 21 -21q57 -56 57 -65t-10.5 -16.5t-24.5 -7.5q-26 0 -103 47q-2 1 -3 2l-190 116q-6 4 -16 10q-97 58 -97 103z" />
<glyph unicode="&#xc9;" horiz-adv-x="1436" d="M41 68q0 32 20.5 52.5t53.5 20.5q15 0 50.5 -4t55.5 -4q-125 147 -3 101.5t-114 629.5l236 260q0 62 -26.5 90.5t-84.5 28.5q-21 0 -59 -7t-53 -7q-33 0 -54.5 21t-21.5 53q0 37 22 55t66 18q27 0 122.5 -6t162.5 -6h114h426q108 0 203 11q12 1 14 1q44 0 70.5 -27.5 t26.5 -74.5q0 -25 -6.5 -81t218.5 -41q-225 -107 -218.5 -182t6.5 -89q0 -40 -18.5 -63t-49.5 -23q-33 0 -56.5 26t-23.5 64q0 18 5 74.5t5 93.5q0 103 -38.5 139.5t-161.5 36.5h-303q-71 0 -93 -26t-22 -111l-128 -124q128 -152 148 -169t72 -17q138 0 177.5 24t39.5 103 q0 14 -2 50.5t-2 58.5q0 35 19 57.5t49 22.5q31 0 47 -31t16 -90q0 -22 -6 -102.5t218 -122.5q-224 -75 -136 -117.5t-76 -140.5q0 -58 -16.5 -89.5t-115.5 -92.5q40 61 20.5 81t-19.5 49q0 25 2 55.5t2 34.5q0 104 -35 129t-190 25q-47 0 -173.5 45t-46.5 -227l136 -230 q0 -91 23 -116t92 -25h329q121 0 161 37.5t40 142.5q0 37 -6 93t-6 75q0 38 23.5 64t56.5 26q31 0 50 -23.5t19 -62.5q0 -14 -6 -89t-6 -136q0 -31 6 -87t144 -85q-138 -42 -165 -70t-71 -28q-3 0 -14 1q-94 9 -201 9h-578q-111 0 -234 -8q-32 -2 -40 -2q-46 0 -67 18.5 t-21 59.5zM570 1526q0 9 33 43l43 43l159 168q48 52 76.5 70t56.5 18q31 0 52.5 -22.5t21.5 -55.5q0 -48 -108 -115l-2 -1l-193 -121l-11 -7q-71 -44 -93 -44q-14 0 -24.5 7.5t-10.5 16.5z" />
<glyph unicode="&#xca;" horiz-adv-x="1436" d="M41 68q0 32 20.5 52.5t53.5 20.5q15 0 50.5 -4t55.5 -4q-125 147 -3 101.5t-114 629.5l236 260q0 62 -26.5 90.5t-84.5 28.5q-21 0 -59 -7t-53 -7q-33 0 -54.5 21t-21.5 53q0 37 22 55t66 18q27 0 122.5 -6t162.5 -6h114h426q108 0 203 11q12 1 14 1q44 0 70.5 -27.5 t26.5 -74.5q0 -25 -6.5 -81t218.5 -41q-225 -107 -218.5 -182t6.5 -89q0 -40 -18.5 -63t-49.5 -23q-33 0 -56.5 26t-23.5 64q0 18 5 74.5t5 93.5q0 103 -38.5 139.5t-161.5 36.5h-303q-71 0 -93 -26t-22 -111l-128 -124q128 -152 148 -169t72 -17q138 0 177.5 24t39.5 103 q0 14 -2 50.5t-2 58.5q0 35 19 57.5t49 22.5q31 0 47 -31t16 -90q0 -22 -6 -102.5t218 -122.5q-224 -75 -136 -117.5t-76 -140.5q0 -58 -16.5 -89.5t-115.5 -92.5q40 61 20.5 81t-19.5 49q0 25 2 55.5t2 34.5q0 104 -35 129t-190 25q-47 0 -173.5 45t-46.5 -227l136 -230 q0 -91 23 -116t92 -25h329q121 0 161 37.5t40 142.5q0 37 -6 93t-6 75q0 38 23.5 64t56.5 26q31 0 50 -23.5t19 -62.5q0 -14 -6 -89t-6 -136q0 -31 6 -87t144 -85q-138 -42 -165 -70t-71 -28q-3 0 -14 1q-94 9 -201 9h-578q-111 0 -234 -8q-32 -2 -40 -2q-46 0 -67 18.5 t-21 59.5zM473 1516q0 23 38 76l10 15l123 178q6 9 14 22q29 47 94 47t94 -47q8 -13 14 -22l121 -179q6 -7 15 -20q35 -48 35 -70q-1 -10 -6.5 -14t-18.5 -5q-41 0 -85 50q-7 7 -11 12l-111 113q-15 14 -27 22t-20 8t-20 -8t-27 -22l-111 -113q-4 -5 -11 -12 q-44 -50 -85 -50q-13 1 -18.5 5t-6.5 14z" />
<glyph unicode="&#xcb;" horiz-adv-x="1436" d="M41 68q0 32 20.5 52.5t53.5 20.5q15 0 50.5 -4t55.5 -4q-125 147 -3 101.5t-114 629.5l236 260q0 62 -26.5 90.5t-84.5 28.5q-21 0 -59 -7t-53 -7q-33 0 -54.5 21t-21.5 53q0 37 22 55t66 18q27 0 122.5 -6t162.5 -6h114h426q108 0 203 11q12 1 14 1q44 0 70.5 -27.5 t26.5 -74.5q0 -25 -6.5 -81t218.5 -41q-225 -107 -218.5 -182t6.5 -89q0 -40 -18.5 -63t-49.5 -23q-33 0 -56.5 26t-23.5 64q0 18 5 74.5t5 93.5q0 103 -38.5 139.5t-161.5 36.5h-303q-71 0 -93 -26t-22 -111l-128 -124q128 -152 148 -169t72 -17q138 0 177.5 24t39.5 103 q0 14 -2 50.5t-2 58.5q0 35 19 57.5t49 22.5q31 0 47 -31t16 -90q0 -22 -6 -102.5t218 -122.5q-224 -75 -136 -117.5t-76 -140.5q0 -58 -16.5 -89.5t-115.5 -92.5q40 61 20.5 81t-19.5 49q0 25 2 55.5t2 34.5q0 104 -35 129t-190 25q-47 0 -173.5 45t-46.5 -227l136 -230 q0 -91 23 -116t92 -25h329q121 0 161 37.5t40 142.5q0 37 -6 93t-6 75q0 38 23.5 64t56.5 26q31 0 50 -23.5t19 -62.5q0 -14 -6 -89t-6 -136q0 -31 6 -87t144 -85q-138 -42 -165 -70t-71 -28q-3 0 -14 1q-94 9 -201 9h-578q-111 0 -234 -8q-32 -2 -40 -2q-46 0 -67 18.5 t-21 59.5zM447 1670q0 45 33.5 78.5t78.5 33.5q47 0 80 -33t33 -79q0 -50 -31.5 -81.5t-81.5 -31.5q-49 0 -80.5 31.5t-31.5 81.5zM832 1670q0 45 33.5 78.5t79.5 33.5t79 -33t33 -79q0 -50 -31.5 -81.5t-80.5 -31.5t-81 32t-32 81z" />
<glyph unicode="&#xcc;" horiz-adv-x="901" d="M67 76q0 33 14.5 190.5t61.5 -117.5q12 0 52.5 -7t68.5 -7q51 0 76.5 30t155.5 619l-130 348q0 61 -147 -343.5t45 462.5q-28 0 -68.5 -6t-52.5 -6q-34 0 -55 20t-21 54q0 39 21.5 58t64.5 19q5 0 108 -9t202 -9q94 0 194 9t107 9q43 0 64.5 -19t21.5 -58 q0 -33 -21.5 -53.5t-56.5 -20.5q-12 0 72 -303.5t-193 315.5q-51 0 -75.5 -29t-24.5 -90l153 -500q-153 -438 -128.5 -467.5t75.5 -29.5q37 161 73 87.5t48 -73.5q84 243 81 101t-3 -174q0 -40 -21.5 -59t-64.5 -19q-4 0 -104.5 9t-196.5 9q-104 0 -206.5 -9t-103.5 -9 q-43 0 -64.5 19t-21.5 59zM263 1786q0 33 21.5 56.5t51.5 23.5q46 0 147 -179q-18 95 -16 93l162 -162q8 -7 21 -21q57 -56 57 -65t-10.5 -16.5t-24.5 -7.5q-26 0 -103 47q-2 1 -3 2l-190 116q-6 4 -16 10q-97 58 -97 103z" />
<glyph unicode="&#xcd;" horiz-adv-x="901" d="M67 76q0 33 14.5 190.5t61.5 -117.5q12 0 52.5 -7t68.5 -7q51 0 76.5 30t155.5 619l-130 348q0 61 -147 -343.5t45 462.5q-28 0 -68.5 -6t-52.5 -6q-34 0 -55 20t-21 54q0 39 21.5 58t64.5 19q5 0 108 -9t202 -9q94 0 194 9t107 9q43 0 64.5 -19t21.5 -58 q0 -33 -21.5 -53.5t-56.5 -20.5q-12 0 72 -303.5t-193 315.5q-51 0 -75.5 -29t-24.5 -90l153 -500q-153 -438 -128.5 -467.5t75.5 -29.5q37 161 73 87.5t48 -73.5q84 243 81 101t-3 -174q0 -40 -21.5 -59t-64.5 -19q-4 0 -104.5 9t-196.5 9q-104 0 -206.5 -9t-103.5 -9 q-43 0 -64.5 19t-21.5 59zM269 1526q0 9 33 43l43 43l159 168q48 52 76.5 70t56.5 18q31 0 52.5 -22.5t21.5 -55.5q0 -48 -108 -115l-2 -1l-193 -121l-11 -7q-71 -44 -93 -44q-14 0 -24.5 7.5t-10.5 16.5z" />
<glyph unicode="&#xce;" horiz-adv-x="901" d="M67 76q0 33 14.5 190.5t61.5 -117.5q12 0 52.5 -7t68.5 -7q51 0 76.5 30t155.5 619l-130 348q0 61 -147 -343.5t45 462.5q-28 0 -68.5 -6t-52.5 -6q-34 0 -55 20t-21 54q0 39 21.5 58t64.5 19q5 0 108 -9t202 -9q94 0 194 9t107 9q43 0 64.5 -19t21.5 -58 q0 -33 -21.5 -53.5t-56.5 -20.5q-12 0 72 -303.5t-193 315.5q-51 0 -75.5 -29t-24.5 -90l153 -500q-153 -438 -128.5 -467.5t75.5 -29.5q37 161 73 87.5t48 -73.5q84 243 81 101t-3 -174q0 -40 -21.5 -59t-64.5 -19q-4 0 -104.5 9t-196.5 9q-104 0 -206.5 -9t-103.5 -9 q-43 0 -64.5 19t-21.5 59zM172 1516q0 23 38 76l10 15l123 178q6 9 14 22q29 47 94 47t94 -47q8 -13 14 -22l121 -179q6 -7 15 -20q35 -48 35 -70q-1 -10 -6.5 -14t-18.5 -5q-41 0 -85 50q-7 7 -11 12l-111 113q-15 14 -27 22t-20 8t-20 -8t-27 -22l-111 -113q-4 -5 -11 -12 q-44 -50 -85 -50q-13 1 -18.5 5t-6.5 14z" />
<glyph unicode="&#xcf;" horiz-adv-x="901" d="M67 76q0 33 14.5 190.5t61.5 -117.5q12 0 52.5 -7t68.5 -7q51 0 76.5 30t155.5 619l-130 348q0 61 -147 -343.5t45 462.5q-28 0 -68.5 -6t-52.5 -6q-34 0 -55 20t-21 54q0 39 21.5 58t64.5 19q5 0 108 -9t202 -9q94 0 194 9t107 9q43 0 64.5 -19t21.5 -58 q0 -33 -21.5 -53.5t-56.5 -20.5q-12 0 72 -303.5t-193 315.5q-51 0 -75.5 -29t-24.5 -90l153 -500q-153 -438 -128.5 -467.5t75.5 -29.5q37 161 73 87.5t48 -73.5q84 243 81 101t-3 -174q0 -40 -21.5 -59t-64.5 -19q-4 0 -104.5 9t-196.5 9q-104 0 -206.5 -9t-103.5 -9 q-43 0 -64.5 19t-21.5 59zM146 1670q0 45 33.5 78.5t78.5 33.5q47 0 80 -33t33 -79q0 -50 -31.5 -81.5t-81.5 -31.5q-49 0 -80.5 31.5t-31.5 81.5zM531 1670q0 45 33.5 78.5t79.5 33.5t79 -33t33 -79q0 -50 -31.5 -81.5t-80.5 -31.5t-81 32t-32 81z" />
<glyph unicode="&#xd1;" horiz-adv-x="1669" d="M47 70q0 32 21 51.5t55 19.5q16 0 50.5 -5t53.5 -5q53 0 78 28t-169 601l194 362q0 66 -25 91.5t-86 25.5q-14 0 -48 -4t-54 -4q-31 0 -50.5 21t-19.5 55t29 53.5t80 19.5q24 0 100.5 -8t128.5 -8q30 0 75.5 7t61.5 7q46 0 75.5 -23.5t378.5 -538.5l240 -660q-1 14 -3 43 q-11 134 99 489l-110 438q0 69 -23.5 91t-88.5 22q-18 0 -54 -4t-55 -4q-34 0 -59 23t-25 55q0 35 28.5 53t84.5 18q32 0 133.5 -8t169.5 -8q69 0 149 8t92 8q49 0 72 -18t23 -57q0 -33 -20.5 -53.5t-53.5 -20.5q-16 0 -51 4t-54 4q-54 0 -78 -26t-24 -87l200 -558 q-200 -492 -235.5 -535t-118.5 -43q-56 0 -86 20t-73 105l-563 1110q4 -72 6 -137t2 -119l-132 -209q132 -580 157 -604.5t89 -24.5q16 0 51 5t54 5q33 0 55.5 -21t22.5 -52q0 -38 -27.5 -58t-77.5 -20q-18 0 -116 9t-177 9q-78 0 -163.5 -9t-94.5 -9q-47 0 -70.5 19.5 t-23.5 60.5zM553 1577q0 19 15.5 51t46.5 78q24 37 56.5 54.5t76.5 17.5q18 0 34 -2t31 -6l107 -27q11 -3 22.5 -4.5t22.5 -1.5q25 0 43 8t29 23q6 8 13 26q12 31 34 31q14 0 22.5 -9t8.5 -24q0 -17 -18 -57.5t-44 -75.5q-22 -31 -54.5 -47t-72.5 -16q-14 0 -26.5 1.5 t-26.5 4.5l-107 27q-17 4 -30.5 6t-22.5 2q-35 0 -53 -10t-33 -37q-3 -6 -7 -15q-11 -26 -32 -26q-15 0 -25 8t-10 20z" />
<glyph unicode="&#xd2;" horiz-adv-x="1425" d="M86 682q0 332 167.5 522.5t459.5 190.5q289 0 457.5 -192t168.5 -521q-307 -354 -322 -532.5t-306 -178.5t-458 190.5t-167 520.5zM281 682q255 406 244.5 -80.5t187.5 -486.5t186.5 486.5t245.5 80.5q0 261 -117.5 415t-314.5 154q-198 0 -315 -154t-117 -415zM525 1786 q0 33 21.5 56.5t51.5 23.5q46 0 147 -179q-18 95 -16 93l162 -162q8 -7 21 -21q57 -56 57 -65t-10.5 -16.5t-24.5 -7.5q-26 0 -103 47q-2 1 -3 2l-190 116q-6 4 -16 10q-97 58 -97 103z" />
<glyph unicode="&#xd3;" horiz-adv-x="1425" d="M86 682q0 332 167.5 522.5t459.5 190.5q289 0 457.5 -192t168.5 -521q-307 -354 -322 -532.5t-306 -178.5t-458 190.5t-167 520.5zM281 682q255 406 244.5 -80.5t187.5 -486.5t186.5 486.5t245.5 80.5q0 261 -117.5 415t-314.5 154q-198 0 -315 -154t-117 -415zM531 1526 q0 9 33 43l43 43l159 168q48 52 76.5 70t56.5 18q31 0 52.5 -22.5t21.5 -55.5q0 -48 -108 -115l-2 -1l-193 -121l-11 -7q-71 -44 -93 -44q-14 0 -24.5 7.5t-10.5 16.5z" />
<glyph unicode="&#xd4;" horiz-adv-x="1425" d="M86 682q0 332 167.5 522.5t459.5 190.5q289 0 457.5 -192t168.5 -521q-307 -354 -322 -532.5t-306 -178.5t-458 190.5t-167 520.5zM281 682q255 406 244.5 -80.5t187.5 -486.5t186.5 486.5t245.5 80.5q0 261 -117.5 415t-314.5 154q-198 0 -315 -154t-117 -415zM434 1516 q0 23 38 76l10 15l123 178q6 9 14 22q29 47 94 47t94 -47q8 -13 14 -22l121 -179q6 -7 15 -20q35 -48 35 -70q-1 -10 -6.5 -14t-18.5 -5q-41 0 -85 50q-7 7 -11 12l-111 113q-15 14 -27 22t-20 8t-20 -8t-27 -22l-111 -113q-4 -5 -11 -12q-44 -50 -85 -50q-13 1 -18.5 5 t-6.5 14z" />
<glyph unicode="&#xd5;" horiz-adv-x="1425" d="M86 682q0 332 167.5 522.5t459.5 190.5q289 0 457.5 -192t168.5 -521q-307 -354 -322 -532.5t-306 -178.5t-458 190.5t-167 520.5zM281 682q255 406 244.5 -80.5t187.5 -486.5t186.5 486.5t245.5 80.5q0 261 -117.5 415t-314.5 154q-198 0 -315 -154t-117 -415zM430 1577 q0 19 15.5 51t46.5 78q24 37 56.5 54.5t76.5 17.5q18 0 34 -2t31 -6l107 -27q11 -3 22.5 -4.5t22.5 -1.5q25 0 43 8t29 23q6 8 13 26q12 31 34 31q14 0 22.5 -9t8.5 -24q0 -17 -18 -57.5t-44 -75.5q-22 -31 -54.5 -47t-72.5 -16q-14 0 -26.5 1.5t-26.5 4.5l-107 27 q-17 4 -30.5 6t-22.5 2q-35 0 -53 -10t-33 -37q-3 -6 -7 -15q-11 -26 -32 -26q-15 0 -25 8t-10 20z" />
<glyph unicode="&#xd6;" horiz-adv-x="1425" d="M86 682q0 332 167.5 522.5t459.5 190.5q289 0 457.5 -192t168.5 -521q-307 -354 -322 -532.5t-306 -178.5t-458 190.5t-167 520.5zM281 682q255 406 244.5 -80.5t187.5 -486.5t186.5 486.5t245.5 80.5q0 261 -117.5 415t-314.5 154q-198 0 -315 -154t-117 -415zM408 1670 q0 45 33.5 78.5t78.5 33.5q47 0 80 -33t33 -79q0 -50 -31.5 -81.5t-81.5 -31.5q-49 0 -80.5 31.5t-31.5 81.5zM793 1670q0 45 33.5 78.5t79.5 33.5t79 -33t33 -79q0 -50 -31.5 -81.5t-80.5 -31.5t-81 32t-32 81z" />
<glyph unicode="&#xd8;" horiz-adv-x="1425" d="M86 682q0 332 167.5 522.5t459.5 190.5q96 0 177 -20.5t148 -61.5l82 121q14 20 25.5 28t25.5 8q22 0 36 -14t14 -37q0 -8 -2 -16.5t-5 -14.5l-94 -137q109 -99 164 -242.5t55 -326.5q0 -329 -168.5 -520t-459.5 -191q-112 0 -200 25t-159 76l-100 -160 q-12 -20 -26.5 -29.5t-32.5 -9.5q-21 0 -33.5 14.5t-12.5 38.5q0 13 4.5 24.5t14.5 26.5l108 164q-96 106 -142 238t-46 303zM279 674q0 -111 23.5 -202t74.5 -173l571 877q-45 37 -104 56t-131 19q-200 0 -317 -155t-117 -422zM446 217q52 -52 118 -77t149 -25 q198 0 315 153t117 414q0 127 -30 231.5t-91 188.5z" />
<glyph unicode="&#xd9;" horiz-adv-x="1663" d="M20 1305q0 39 21.5 58t64.5 19q16 0 106.5 -9t166.5 -9q70 0 165.5 9t121.5 9q49 0 77.5 -19.5t28.5 -53.5q0 -36 -19.5 -58t-50.5 -22q-18 0 -51 5t-47 5q-58 0 -81 -24t-23 -91l340 -428q-340 -422 -264 -498.5t258 -76.5q178 0 254.5 75.5t76.5 254.5v86v585 q0 68 -22.5 92.5t-79.5 24.5q-14 0 -47 -5t-51 -5q-32 0 -52 21.5t-20 56.5q0 34 29.5 54.5t78.5 20.5q26 0 120.5 -9t164.5 -9q76 0 166.5 9t106.5 9q43 0 65.5 -20t22.5 -59q0 -33 -21.5 -53.5t-56.5 -20.5q-12 0 -52.5 5t-68.5 5q-44 0 -73 -26.5t-29 -65.5q0 -3 1 -10 t1 -13l-2 -497v-101l174 -198q-174 22 -186 -38t114 -394q-205 182 -323 128.5t-289 -53.5q-137 0 -242 34.5t-166 98.5q-58 61 -83.5 146t215.5 350l-241 27v497q0 59 -24.5 87t-77.5 28q-28 0 -68.5 -5t-52.5 -5q-34 0 -55 21t-21 55zM643 1786q0 33 21.5 56.5t51.5 23.5 q46 0 147 -179q-18 95 -16 93l162 -162q8 -7 21 -21q57 -56 57 -65t-10.5 -16.5t-24.5 -7.5q-26 0 -103 47q-2 1 -3 2l-190 116q-6 4 -16 10q-97 58 -97 103z" />
<glyph unicode="&#xda;" horiz-adv-x="1663" d="M20 1305q0 39 21.5 58t64.5 19q16 0 106.5 -9t166.5 -9q70 0 165.5 9t121.5 9q49 0 77.5 -19.5t28.5 -53.5q0 -36 -19.5 -58t-50.5 -22q-18 0 -51 5t-47 5q-58 0 -81 -24t-23 -91l340 -428q-340 -422 -264 -498.5t258 -76.5q178 0 254.5 75.5t76.5 254.5v86v585 q0 68 -22.5 92.5t-79.5 24.5q-14 0 -47 -5t-51 -5q-32 0 -52 21.5t-20 56.5q0 34 29.5 54.5t78.5 20.5q26 0 120.5 -9t164.5 -9q76 0 166.5 9t106.5 9q43 0 65.5 -20t22.5 -59q0 -33 -21.5 -53.5t-56.5 -20.5q-12 0 -52.5 5t-68.5 5q-44 0 -73 -26.5t-29 -65.5q0 -3 1 -10 t1 -13l-2 -497v-101l174 -198q-174 22 -186 -38t114 -394q-205 182 -323 128.5t-289 -53.5q-137 0 -242 34.5t-166 98.5q-58 61 -83.5 146t215.5 350l-241 27v497q0 59 -24.5 87t-77.5 28q-28 0 -68.5 -5t-52.5 -5q-34 0 -55 21t-21 55zM649 1526q0 9 33 43l43 43l159 168 q48 52 76.5 70t56.5 18q31 0 52.5 -22.5t21.5 -55.5q0 -48 -108 -115l-2 -1l-193 -121l-11 -7q-71 -44 -93 -44q-14 0 -24.5 7.5t-10.5 16.5z" />
<glyph unicode="&#xdb;" horiz-adv-x="1663" d="M20 1305q0 39 21.5 58t64.5 19q16 0 106.5 -9t166.5 -9q70 0 165.5 9t121.5 9q49 0 77.5 -19.5t28.5 -53.5q0 -36 -19.5 -58t-50.5 -22q-18 0 -51 5t-47 5q-58 0 -81 -24t-23 -91l340 -428q-340 -422 -264 -498.5t258 -76.5q178 0 254.5 75.5t76.5 254.5v86v585 q0 68 -22.5 92.5t-79.5 24.5q-14 0 -47 -5t-51 -5q-32 0 -52 21.5t-20 56.5q0 34 29.5 54.5t78.5 20.5q26 0 120.5 -9t164.5 -9q76 0 166.5 9t106.5 9q43 0 65.5 -20t22.5 -59q0 -33 -21.5 -53.5t-56.5 -20.5q-12 0 -52.5 5t-68.5 5q-44 0 -73 -26.5t-29 -65.5q0 -3 1 -10 t1 -13l-2 -497v-101l174 -198q-174 22 -186 -38t114 -394q-205 182 -323 128.5t-289 -53.5q-137 0 -242 34.5t-166 98.5q-58 61 -83.5 146t215.5 350l-241 27v497q0 59 -24.5 87t-77.5 28q-28 0 -68.5 -5t-52.5 -5q-34 0 -55 21t-21 55zM552 1516q0 23 38 76l10 15l123 178 q6 9 14 22q29 47 94 47t94 -47q8 -13 14 -22l121 -179q6 -7 15 -20q35 -48 35 -70q-1 -10 -6.5 -14t-18.5 -5q-41 0 -85 50q-7 7 -11 12l-111 113q-15 14 -27 22t-20 8t-20 -8t-27 -22l-111 -113q-4 -5 -11 -12q-44 -50 -85 -50q-13 1 -18.5 5t-6.5 14z" />
<glyph unicode="&#xdc;" horiz-adv-x="1663" d="M20 1305q0 39 21.5 58t64.5 19q16 0 106.5 -9t166.5 -9q70 0 165.5 9t121.5 9q49 0 77.5 -19.5t28.5 -53.5q0 -36 -19.5 -58t-50.5 -22q-18 0 -51 5t-47 5q-58 0 -81 -24t-23 -91l340 -428q-340 -422 -264 -498.5t258 -76.5q178 0 254.5 75.5t76.5 254.5v86v585 q0 68 -22.5 92.5t-79.5 24.5q-14 0 -47 -5t-51 -5q-32 0 -52 21.5t-20 56.5q0 34 29.5 54.5t78.5 20.5q26 0 120.5 -9t164.5 -9q76 0 166.5 9t106.5 9q43 0 65.5 -20t22.5 -59q0 -33 -21.5 -53.5t-56.5 -20.5q-12 0 -52.5 5t-68.5 5q-44 0 -73 -26.5t-29 -65.5q0 -3 1 -10 t1 -13l-2 -497v-101l174 -198q-174 22 -186 -38t114 -394q-205 182 -323 128.5t-289 -53.5q-137 0 -242 34.5t-166 98.5q-58 61 -83.5 146t215.5 350l-241 27v497q0 59 -24.5 87t-77.5 28q-28 0 -68.5 -5t-52.5 -5q-34 0 -55 21t-21 55zM526 1670q0 45 33.5 78.5t78.5 33.5 q47 0 80 -33t33 -79q0 -50 -31.5 -81.5t-81.5 -31.5q-49 0 -80.5 31.5t-31.5 81.5zM911 1670q0 45 33.5 78.5t79.5 33.5t79 -33t33 -79q0 -50 -31.5 -81.5t-80.5 -31.5t-81 32t-32 81z" />
<glyph unicode="&#xdf;" horiz-adv-x="1294" d="M23 47q0 33 21 49.5t65 16.5h55q57 0 77.5 19.5t20.5 74.5v657h-41q-29 0 -63.5 -3t-40.5 -3q-38 0 -54 13.5t-16 43.5t20 48t52 18q3 0 18 -1q58 -5 109 -5h28q17 189 128.5 292t299.5 103q161 0 254 -71.5t93 -194.5q0 -61 -27 -110.5t-88 -100.5q-21 -18 -59 -44 q-58 -40 -58 -61q0 -37 99 -94q67 -38 104 -65q90 -65 133 -141t43 -169q0 -155 -93.5 -251.5t-244.5 -96.5q-88 0 -174 47q-18 11 -22 11t-31.5 -27t-57.5 -27q-25 0 -42 18.5t-17 45.5q0 2 1 17q9 104 9 218q0 46 -8 94q-2 12 -2 15q0 37 18 57.5t50 20.5q34 0 49.5 -20 t15.5 -64v-58q0 -100 50 -155t141 -55q87 0 141.5 55.5t54.5 144.5q0 118 -167 230q-35 23 -53 36q-120 83 -151.5 123.5t-31.5 85.5q0 37 20.5 68.5t77.5 75.5q13 10 38 28q112 82 112 146q0 63 -50 102t-133 39q-143 0 -212.5 -106.5t-69.5 -327.5v-647q0 -110 -26.5 -141 t-106.5 -31q-13 0 -34 5t-30 5q-25 0 -66 -5t-57 -5q-37 0 -54 13.5t-17 43.5z" />
<glyph unicode="&#xe0;" horiz-adv-x="1133" d="M49 266q0 132 77 200.5t259 94.5q11 2 29 4q297 43 297 170q0 80 -57.5 125t-159.5 45q-84 0 -146.5 -28t-62.5 -60q0 -7 23.5 -35.5t23.5 -56.5q0 -40 -29.5 -67t-73.5 -27q-56 0 -88 36.5t-32 100.5q0 116 110.5 188t294.5 72q190 0 273 -81.5t83 -268.5v-463 q0 -69 14 -92t50 -23q38 0 55 24.5t17 82.5v102q0 44 14 64t45 20q32 0 45.5 -20t13.5 -70v-149q0 -88 -55 -137.5t-151 -49.5q-80 0 -124.5 40.5t-48.5 114.5q-60 -76 -150 -115.5t-208 -39.5q-164 0 -251 77.5t-87 221.5zM199 258q0 -69 53 -113.5t137 -44.5q152 0 242 71 t90 189v158q-63 -49 -271 -78h-1q-1 -192 -125.5 -146t-124.5 -36zM312 1419q0 33 21.5 56.5t51.5 23.5q46 0 147 -179q-18 95 -16 93l162 -162q8 -7 21 -21q57 -56 57 -65t-10.5 -16.5t-24.5 -7.5q-26 0 -103 47q-2 1 -3 2l-190 116q-6 4 -16 10q-97 58 -97 103z" />
<glyph unicode="&#xe1;" horiz-adv-x="1133" d="M49 266q0 132 77 200.5t259 94.5q11 2 29 4q297 43 297 170q0 80 -57.5 125t-159.5 45q-84 0 -146.5 -28t-62.5 -60q0 -7 23.5 -35.5t23.5 -56.5q0 -40 -29.5 -67t-73.5 -27q-56 0 -88 36.5t-32 100.5q0 116 110.5 188t294.5 72q190 0 273 -81.5t83 -268.5v-463 q0 -69 14 -92t50 -23q38 0 55 24.5t17 82.5v102q0 44 14 64t45 20q32 0 45.5 -20t13.5 -70v-149q0 -88 -55 -137.5t-151 -49.5q-80 0 -124.5 40.5t-48.5 114.5q-60 -76 -150 -115.5t-208 -39.5q-164 0 -251 77.5t-87 221.5zM199 258q0 -69 53 -113.5t137 -44.5q152 0 242 71 t90 189v158q-63 -49 -271 -78h-1q-1 -192 -125.5 -146t-124.5 -36zM318 1159q0 9 33 43l43 43l159 168q48 52 76.5 70t56.5 18q31 0 52.5 -22.5t21.5 -55.5q0 -48 -108 -115l-2 -1l-193 -121l-11 -7q-71 -44 -93 -44q-14 0 -24.5 7.5t-10.5 16.5z" />
<glyph unicode="&#xe2;" horiz-adv-x="1133" d="M49 266q0 132 77 200.5t259 94.5q11 2 29 4q297 43 297 170q0 80 -57.5 125t-159.5 45q-84 0 -146.5 -28t-62.5 -60q0 -7 23.5 -35.5t23.5 -56.5q0 -40 -29.5 -67t-73.5 -27q-56 0 -88 36.5t-32 100.5q0 116 110.5 188t294.5 72q190 0 273 -81.5t83 -268.5v-463 q0 -69 14 -92t50 -23q38 0 55 24.5t17 82.5v102q0 44 14 64t45 20q32 0 45.5 -20t13.5 -70v-149q0 -88 -55 -137.5t-151 -49.5q-80 0 -124.5 40.5t-48.5 114.5q-60 -76 -150 -115.5t-208 -39.5q-164 0 -251 77.5t-87 221.5zM199 258q0 -69 53 -113.5t137 -44.5q152 0 242 71 t90 189v158q-63 -49 -271 -78h-1q-1 -192 -125.5 -146t-124.5 -36zM221 1149q0 23 38 76l10 15l123 178q6 9 14 22q29 47 94 47t94 -47q8 -13 14 -22l121 -179q6 -7 15 -20q35 -48 35 -70q-1 -10 -6.5 -14t-18.5 -5q-41 0 -85 50q-7 7 -11 12l-111 113q-15 14 -27 22t-20 8 t-20 -8t-27 -22l-111 -113q-4 -5 -11 -12q-44 -50 -85 -50q-13 1 -18.5 5t-6.5 14z" />
<glyph unicode="&#xe3;" horiz-adv-x="1133" d="M49 266q0 132 77 200.5t259 94.5q11 2 29 4q297 43 297 170q0 80 -57.5 125t-159.5 45q-84 0 -146.5 -28t-62.5 -60q0 -7 23.5 -35.5t23.5 -56.5q0 -40 -29.5 -67t-73.5 -27q-56 0 -88 36.5t-32 100.5q0 116 110.5 188t294.5 72q190 0 273 -81.5t83 -268.5v-463 q0 -69 14 -92t50 -23q38 0 55 24.5t17 82.5v102q0 44 14 64t45 20q32 0 45.5 -20t13.5 -70v-149q0 -88 -55 -137.5t-151 -49.5q-80 0 -124.5 40.5t-48.5 114.5q-60 -76 -150 -115.5t-208 -39.5q-164 0 -251 77.5t-87 221.5zM199 258q0 -69 53 -113.5t137 -44.5q152 0 242 71 t90 189v158q-63 -49 -271 -78h-1q-1 -192 -125.5 -146t-124.5 -36zM217 1210q0 19 15.5 51t46.5 78q24 37 56.5 54.5t76.5 17.5q18 0 34 -2t31 -6l107 -27q11 -3 22.5 -4.5t22.5 -1.5q25 0 43 8t29 23q6 8 13 26q12 31 34 31q14 0 22.5 -9t8.5 -24q0 -17 -18 -57.5 t-44 -75.5q-22 -31 -54.5 -47t-72.5 -16q-14 0 -26.5 1.5t-26.5 4.5l-107 27q-17 4 -30.5 6t-22.5 2q-35 0 -53 -10t-33 -37q-3 -6 -7 -15q-11 -26 -32 -26q-15 0 -25 8t-10 20z" />
<glyph unicode="&#xe4;" horiz-adv-x="1133" d="M49 266q0 132 77 200.5t259 94.5q11 2 29 4q297 43 297 170q0 80 -57.5 125t-159.5 45q-84 0 -146.5 -28t-62.5 -60q0 -7 23.5 -35.5t23.5 -56.5q0 -40 -29.5 -67t-73.5 -27q-56 0 -88 36.5t-32 100.5q0 116 110.5 188t294.5 72q190 0 273 -81.5t83 -268.5v-463 q0 -69 14 -92t50 -23q38 0 55 24.5t17 82.5v102q0 44 14 64t45 20q32 0 45.5 -20t13.5 -70v-149q0 -88 -55 -137.5t-151 -49.5q-80 0 -124.5 40.5t-48.5 114.5q-60 -76 -150 -115.5t-208 -39.5q-164 0 -251 77.5t-87 221.5zM195 1303q0 45 33.5 78.5t78.5 33.5q47 0 80 -33 t33 -79q0 -50 -31.5 -81.5t-81.5 -31.5q-49 0 -80.5 31.5t-31.5 81.5zM199 258q0 -69 53 -113.5t137 -44.5q152 0 242 71t90 189v158q-63 -49 -271 -78h-1q-1 -192 -125.5 -146t-124.5 -36zM580 1303q0 45 33.5 78.5t79.5 33.5t79 -33t33 -79q0 -50 -31.5 -81.5t-80.5 -31.5 t-81 32t-32 81z" />
<glyph unicode="&#xe5;" horiz-adv-x="1133" d="M49 266q0 132 77 200.5t259 94.5q11 2 29 4q297 43 297 170q0 80 -57.5 125t-159.5 45q-84 0 -146.5 -28t-62.5 -60q0 -7 23.5 -35.5t23.5 -56.5q0 -40 -29.5 -67t-73.5 -27q-56 0 -88 36.5t-32 100.5q0 116 110.5 188t294.5 72q190 0 273 -81.5t83 -268.5v-463 q0 -69 14 -92t50 -23q38 0 55 24.5t17 82.5v102q0 44 14 64t45 20q32 0 45.5 -20t13.5 -70v-149q0 -88 -55 -137.5t-151 -49.5q-80 0 -124.5 40.5t-48.5 114.5q-60 -76 -150 -115.5t-208 -39.5q-164 0 -251 77.5t-87 221.5zM199 258q0 -69 53 -113.5t137 -44.5q152 0 242 71 t90 189v158q-63 -49 -271 -78h-1q-148 -20 -199 -60t-51 -122zM264 1341q0 105 72 176.5t176 71.5t176 -71.5t72 -176.5q0 -104 -72 -175.5t-176 -71.5t-176 71.5t-72 175.5zM371 1341q0 -60 40.5 -101.5t100.5 -41.5t100.5 41.5t40.5 101.5t-40.5 101t-100.5 41t-100.5 -41 t-40.5 -101z" />
<glyph unicode="&#xe6;" horiz-adv-x="1677" d="M53 264q0 171 137.5 257.5t409.5 86.5h84h51q1 9 1.5 20.5t0.5 33.5q0 126 -60 185.5t-188 59.5q-81 0 -140.5 -28.5t-59.5 -61.5q0 -7 23.5 -35.5t23.5 -56.5q0 -40 -29 -67t-74 -27q-59 0 -90.5 34t-31.5 99q0 116 107 189t282 73q136 0 227 -52.5t115 -144.5 q49 97 135.5 147t204.5 50q199 0 317.5 -121t118.5 -327q0 -63 -21 -81t-92 -18h-614v-12q0 -168 80.5 -269.5t212.5 -101.5q90 0 154.5 43t103.5 129q6 14 17 40q37 87 77 87q35 0 54.5 -18.5t19.5 -52.5q0 -47 -21.5 -98t-62.5 -101q-66 -81 -152.5 -119.5t-204.5 -38.5 q-129 0 -218 48t-148 151q-74 -97 -183 -148t-243 -51q-151 0 -237.5 79.5t-86.5 217.5zM203 262q0 -74 53.5 -120t140.5 -46q154 0 246 72t92 192v111q-18 4 -42 6t-56 2q-222 0 -328 -53t-106 -164zM897 608h565v15q0 122 -76.5 198t-199.5 76q-121 0 -198 -77t-91 -212z " />
<glyph unicode="&#xe7;" horiz-adv-x="1018" d="M76 498q0 248 128 390t351 142q180 0 290.5 -83.5t110.5 -217.5q0 -78 -44.5 -124t-120.5 -46q-52 0 -80.5 23.5t-28.5 66.5q0 29 15 53t42 39q5 3 15 6q22 9 22 27q0 48 -204 -91t-3 216q-158 0 -245.5 -109.5t-87.5 -308.5q0 -174 122 -143.5t185 -241.5q93 0 154 38.5 t100 122.5q9 19 23 60q34 95 85 95q32 0 53 -20.5t21 -51.5q0 -46 -24.5 -108.5t-63.5 -112.5q-60 -75 -149 -113.5t-205 -38.5q-213 0 -337 143t-124 388zM275 -342q0 25 16.5 41t42.5 16q15 0 90.5 -41t145.5 -41q47 0 76.5 25t29.5 63q0 40 -26.5 64.5t-71.5 24.5 q-19 0 -42.5 -4.5t-27.5 -4.5q-10 1 -18 8.5t-8 16.5q0 3 3 16q16 76 18 158h65v-92q0 -7 4.5 -13t9.5 -6q10 0 24.5 1t18.5 1q89 0 140 -44.5t51 -122.5q0 -83 -60.5 -130t-167.5 -47q-128 0 -220.5 34t-92.5 77z" />
<glyph unicode="&#xe8;" horiz-adv-x="1049" d="M76 498q0 243 124.5 386.5t336.5 143.5q204 0 326 -122.5t122 -327.5q0 -59 -20 -79t-78 -20h-35h-612v-6q0 -169 83.5 -271t221.5 -102q84 0 141.5 30t104.5 97q18 27 38 82q31 82 78 82q30 0 50 -20.5t20 -51.5q0 -36 -24 -89.5t-64 -106.5q-62 -80 -147.5 -118 t-204.5 -38q-212 0 -354.5 24.5t-106.5 506.5zM340.5 820q-77.5 -77 139.5 -92l335 -118v13q0 122 -76.5 198t-199.5 76q-121 0 -198.5 -77zM351 1419q0 33 21.5 56.5t51.5 23.5q46 0 147 -179q-18 95 -16 93l162 -162q8 -7 21 -21q57 -56 57 -65t-10.5 -16.5t-24.5 -7.5 q-26 0 -103 47q-2 1 -3 2l-190 116q-6 4 -16 10q-97 58 -97 103z" />
<glyph unicode="&#xe9;" horiz-adv-x="1049" d="M76 498q0 243 124.5 386.5t336.5 143.5q204 0 326 -122.5t122 -327.5q0 -59 -20 -79t-78 -20h-35h-612v-6q0 -169 83.5 -271t221.5 -102q84 0 141.5 30t104.5 97q18 27 38 82q31 82 78 82q30 0 50 -20.5t20 -51.5q0 -36 -24 -89.5t-64 -106.5q-62 -80 -147.5 -118 t-204.5 -38q-212 0 -354.5 24.5t-106.5 506.5zM340.5 820q-77.5 -77 139.5 -92l335 -118v13q0 122 -76.5 198t-199.5 76q-121 0 -198.5 -77zM357 1159q0 9 33 43l43 43l159 168q48 52 76.5 70t56.5 18q31 0 52.5 -22.5t21.5 -55.5q0 -48 -108 -115l-2 -1l-193 -121l-11 -7 q-71 -44 -93 -44q-14 0 -24.5 7.5t-10.5 16.5z" />
<glyph unicode="&#xea;" horiz-adv-x="1049" d="M76 498q0 243 124.5 386.5t336.5 143.5q204 0 326 -122.5t122 -327.5q0 -59 -20 -79t-78 -20h-35h-612v-6q0 -169 83.5 -271t221.5 -102q84 0 141.5 30t104.5 97q18 27 38 82q31 82 78 82q30 0 50 -20.5t20 -51.5q0 -36 -24 -89.5t-64 -106.5q-62 -80 -147.5 -118 t-204.5 -38q-212 0 -354.5 24.5t-106.5 506.5zM260 1149q0 23 38 76l10 15l123 178q6 9 14 22q29 47 94 47t94 -47q8 -13 14 -22l121 -179q6 -7 15 -20q35 -48 35 -70q-1 -10 -6.5 -14t-18.5 -5q-41 0 -85 50q-7 7 -11 12l-111 113q-15 14 -27 22t-20 8t-20 -8t-27 -22 l-111 -113q-4 -5 -11 -12q-44 -50 -85 -50q-13 1 -18.5 5t-6.5 14zM340.5 820q-77.5 -77 139.5 -92l335 -118v13q0 122 -76.5 198t-199.5 76q-121 0 -198.5 -77z" />
<glyph unicode="&#xeb;" horiz-adv-x="1049" d="M76 498q0 243 124.5 386.5t336.5 143.5q204 0 326 -122.5t122 -327.5q0 -59 -20 -79t-78 -20h-35h-612v-6q0 -169 83.5 -271t221.5 -102q84 0 141.5 30t104.5 97q18 27 38 82q31 82 78 82q30 0 50 -20.5t20 -51.5q0 -36 -24 -89.5t-64 -106.5q-62 -80 -147.5 -118 t-204.5 -38q-212 0 -354.5 24.5t-106.5 506.5zM234 1303q0 45 33.5 78.5t78.5 33.5q47 0 80 -33t33 -79q0 -50 -31.5 -81.5t-81.5 -31.5q-49 0 -80.5 31.5t-31.5 81.5zM340.5 820q-77.5 -77 139.5 -92l335 -118v13q0 122 -76.5 198t-199.5 76q-121 0 -198.5 -77zM619 1303 q0 45 33.5 78.5t79.5 33.5t79 -33t33 -79q0 -50 -31.5 -81.5t-80.5 -31.5t-81 32t-32 81z" />
<glyph unicode="&#xec;" horiz-adv-x="680" d="M35 51q0 34 21.5 51t64.5 17q10 0 29 -2t28 -2q61 0 79.5 24t18.5 117v408q0 141 -20 175.5t-82 34.5h-74q-37 0 -51 13t-14 45q0 27 20.5 46t50.5 19q6 0 45.5 -3t73.5 -3q57 0 119 5q15 1 18 1q42 0 56 -15t14 -69v-657q0 -91 18 -116t78 -25q13 0 30 2t24 2 q43 0 64.5 -17t21.5 -51q0 -33 -18.5 -47t-61.5 -14q-12 0 -84 8t-131 8q-111 0 -225 -13q-25 -3 -31 -3q-44 0 -63 14.5t-19 46.5zM107 1419q0 33 21.5 56.5t51.5 23.5q46 0 147 -179q-18 95 -16 93l162 -162q8 -7 21 -21q57 -56 57 -65t-10.5 -16.5t-24.5 -7.5 q-26 0 -103 47q-2 1 -3 2l-190 116q-6 4 -16 10q-97 58 -97 103z" />
<glyph unicode="&#xed;" horiz-adv-x="680" d="M35 51q0 34 21.5 51t64.5 17q10 0 29 -2t28 -2q61 0 79.5 24t18.5 117v408q0 141 -20 175.5t-82 34.5h-74q-37 0 -51 13t-14 45q0 27 20.5 46t50.5 19q6 0 45.5 -3t73.5 -3q57 0 119 5q15 1 18 1q42 0 56 -15t14 -69v-657q0 -91 18 -116t78 -25q13 0 30 2t24 2 q43 0 64.5 -17t21.5 -51q0 -33 -18.5 -47t-61.5 -14q-12 0 -84 8t-131 8q-111 0 -225 -13q-25 -3 -31 -3q-44 0 -63 14.5t-19 46.5zM113 1159q0 9 33 43l43 43l159 168q48 52 76.5 70t56.5 18q31 0 52.5 -22.5t21.5 -55.5q0 -48 -108 -115l-2 -1l-193 -121l-11 -7 q-71 -44 -93 -44q-14 0 -24.5 7.5t-10.5 16.5z" />
<glyph unicode="&#xee;" horiz-adv-x="680" d="M16 1149q0 23 38 76l10 15l123 178q6 9 14 22q29 47 94 47t94 -47q8 -13 14 -22l121 -179q6 -7 15 -20q35 -48 35 -70q-1 -10 -6.5 -14t-18.5 -5q-41 0 -85 50q-7 7 -11 12l-111 113q-15 14 -27 22t-20 8t-20 -8t-27 -22l-111 -113q-4 -5 -11 -12q-44 -50 -85 -50 q-13 1 -18.5 5t-6.5 14zM35 51q0 34 21.5 51t64.5 17q10 0 29 -2t28 -2q61 0 79.5 24t18.5 117v408q0 141 -20 175.5t-82 34.5h-74q-37 0 -51 13t-14 45q0 27 20.5 46t50.5 19q6 0 45.5 -3t73.5 -3q57 0 119 5q15 1 18 1q42 0 56 -15t14 -69v-657q0 -91 18 -116t78 -25 q13 0 30 2t24 2q43 0 64.5 -17t21.5 -51q0 -33 -18.5 -47t-61.5 -14q-12 0 -84 8t-131 8q-111 0 -225 -13q-25 -3 -31 -3q-44 0 -63 14.5t-19 46.5z" />
<glyph unicode="&#xef;" horiz-adv-x="680" d="M-10 1303q0 45 33.5 78.5t78.5 33.5q47 0 80 -33t33 -79q0 -50 -31.5 -81.5t-81.5 -31.5q-49 0 -80.5 31.5t-31.5 81.5zM35 51q0 34 21.5 51t64.5 17q10 0 29 -2t28 -2q61 0 79.5 24t18.5 117v408q0 141 -20 175.5t-82 34.5h-74q-37 0 -51 13t-14 45q0 27 20.5 46 t50.5 19q6 0 45.5 -3t73.5 -3q57 0 119 5q15 1 18 1q42 0 56 -15t14 -69v-657q0 -91 18 -116t78 -25q13 0 30 2t24 2q43 0 64.5 -17t21.5 -51q0 -33 -18.5 -47t-61.5 -14q-12 0 -84 8t-131 8q-111 0 -225 -13q-25 -3 -31 -3q-44 0 -63 14.5t-19 46.5zM375 1303 q0 45 33.5 78.5t79.5 33.5t79 -33t33 -79q0 -50 -31.5 -81.5t-80.5 -31.5t-81 32t-32 81z" />
<glyph unicode="&#xf1;" horiz-adv-x="1399" d="M37 51q0 35 21 52.5t63 17.5q11 0 29 -3t26 -3q59 0 78.5 21.5t-182.5 415.5l202 181q0 86 -20.5 115t-77.5 29h-63q-40 0 -58 12.5t-18 40.5q0 32 21.5 49.5t60.5 17.5q5 0 34 -3t54 -3q62 0 127 5q14 1 16 1q39 0 52.5 -16t13.5 -68v-75q72 94 152 135t190 41 q208 0 301.5 -102t300.5 -56l-207 -600q0 -99 19 -120t77 -21q13 0 30 3t24 3q42 0 64 -17.5t22 -52.5q0 -32 -19.5 -46.5t-62.5 -14.5q-11 0 -84.5 8t-135.5 8q-73 0 -153 -8t-86 -8q-35 0 -53.5 16t-18.5 47q0 35 19 51.5t59 16.5q17 0 42 -3t32 -3q42 0 55.5 23.5 t13.5 113.5v293q0 185 -61.5 264.5t-202.5 79.5q-159 0 -266 -244.5t213 43.5l-254 -465q0 -63 14.5 -85.5t55.5 -22.5q6 0 30 3t41 3q41 0 60.5 -16.5t19.5 -51.5q0 -31 -18 -47t-54 -16q-6 0 -86.5 8t-154.5 8q-62 0 -135 -8t-84 -8q-43 0 -60.5 14t-17.5 47zM417 1210 q0 19 15.5 51t46.5 78q24 37 56.5 54.5t76.5 17.5q18 0 34 -2t31 -6l107 -27q11 -3 22.5 -4.5t22.5 -1.5q25 0 43 8t29 23q6 8 13 26q12 31 34 31q14 0 22.5 -9t8.5 -24q0 -17 -18 -57.5t-44 -75.5q-22 -31 -54.5 -47t-72.5 -16q-14 0 -26.5 1.5t-26.5 4.5l-107 27 q-17 4 -30.5 6t-22.5 2q-35 0 -53 -10t-33 -37q-3 -6 -7 -15q-11 -26 -32 -26q-15 0 -25 8t-10 20z" />
<glyph unicode="&#xf2;" horiz-adv-x="1171" d="M76 498q0 243 137 385.5t371 142.5q237 0 373.5 -141.5t136.5 -386.5q18 -506 -127.5 -518.5t-384.5 -12.5q-232 0 -369 144t-137 387zM246 506q498 -98 339.5 -247t8.5 -149q161 0 253.5 105.5t92.5 290.5q0 187 -92 292t-254 105q-163 0 -255.5 -105.5t-92.5 -291.5z M398 1419q0 33 21.5 56.5t51.5 23.5q46 0 147 -179q-18 95 -16 93l162 -162q8 -7 21 -21q57 -56 57 -65t-10.5 -16.5t-24.5 -7.5q-26 0 -103 47q-2 1 -3 2l-190 116q-6 4 -16 10q-97 58 -97 103z" />
<glyph unicode="&#xf3;" horiz-adv-x="1171" d="M76 498q0 243 137 385.5t371 142.5q237 0 373.5 -141.5t136.5 -386.5q18 -506 -127.5 -518.5t-384.5 -12.5q-232 0 -369 144t-137 387zM246 506q498 -98 339.5 -247t8.5 -149q161 0 253.5 105.5t92.5 290.5q0 187 -92 292t-254 105q-163 0 -255.5 -105.5t-92.5 -291.5z M404 1159q0 9 33 43l43 43l159 168q48 52 76.5 70t56.5 18q31 0 52.5 -22.5t21.5 -55.5q0 -48 -108 -115l-2 -1l-193 -121l-11 -7q-71 -44 -93 -44q-14 0 -24.5 7.5t-10.5 16.5z" />
<glyph unicode="&#xf4;" horiz-adv-x="1171" d="M76 498q0 243 137 385.5t371 142.5q237 0 373.5 -141.5t136.5 -386.5q18 -506 -127.5 -518.5t-384.5 -12.5q-232 0 -369 144t-137 387zM246 506q498 -98 339.5 -247t8.5 -149q161 0 253.5 105.5t92.5 290.5q0 187 -92 292t-254 105q-163 0 -255.5 -105.5t-92.5 -291.5z M307 1149q0 23 38 76l10 15l123 178q6 9 14 22q29 47 94 47t94 -47q8 -13 14 -22l121 -179q6 -7 15 -20q35 -48 35 -70q-1 -10 -6.5 -14t-18.5 -5q-41 0 -85 50q-7 7 -11 12l-111 113q-15 14 -27 22t-20 8t-20 -8t-27 -22l-111 -113q-4 -5 -11 -12q-44 -50 -85 -50 q-13 1 -18.5 5t-6.5 14z" />
<glyph unicode="&#xf5;" horiz-adv-x="1171" d="M76 498q0 243 137 385.5t371 142.5q237 0 373.5 -141.5t136.5 -386.5q18 -506 -127.5 -518.5t-384.5 -12.5q-232 0 -369 144t-137 387zM246 506q498 -98 339.5 -247t8.5 -149q161 0 253.5 105.5t92.5 290.5q0 187 -92 292t-254 105q-163 0 -255.5 -105.5t-92.5 -291.5z M303 1210q0 19 15.5 51t46.5 78q24 37 56.5 54.5t76.5 17.5q18 0 34 -2t31 -6l107 -27q11 -3 22.5 -4.5t22.5 -1.5q25 0 43 8t29 23q6 8 13 26q12 31 34 31q14 0 22.5 -9t8.5 -24q0 -17 -18 -57.5t-44 -75.5q-22 -31 -54.5 -47t-72.5 -16q-14 0 -26.5 1.5t-26.5 4.5l-107 27 q-17 4 -30.5 6t-22.5 2q-35 0 -53 -10t-33 -37q-3 -6 -7 -15q-11 -26 -32 -26q-15 0 -25 8t-10 20z" />
<glyph unicode="&#xf6;" horiz-adv-x="1171" d="M76 498q0 243 137 385.5t371 142.5q237 0 373.5 -141.5t136.5 -386.5q18 -506 -127.5 -518.5t-384.5 -12.5q-232 0 -369 144t-137 387zM246 506q498 -98 339.5 -247t8.5 -149q161 0 253.5 105.5t92.5 290.5q0 187 -92 292t-254 105q-163 0 -255.5 -105.5t-92.5 -291.5z M281 1303q0 45 33.5 78.5t78.5 33.5q47 0 80 -33t33 -79q0 -50 -31.5 -81.5t-81.5 -31.5q-49 0 -80.5 31.5t-31.5 81.5zM666 1303q0 45 33.5 78.5t79.5 33.5t79 -33t33 -79q0 -50 -31.5 -81.5t-80.5 -31.5t-81 32t-32 81z" />
<glyph unicode="&#xf7;" horiz-adv-x="1706" d="M254 553v117h1198v-117h-1198zM739 250q0 48 34 81.5t81 33.5t81 -34t34 -81t-33.5 -81t-81.5 -34t-81.5 33.5t-33.5 81.5zM739 971q0 47 34 80.5t81 33.5q48 0 81.5 -33.5t33.5 -80.5q0 -48 -33.5 -81.5t-81.5 -33.5q-49 0 -82 33.5t-33 81.5z" />
<glyph unicode="&#xf8;" horiz-adv-x="1171" d="M76 498q0 243 137 385.5t371 142.5q79 0 144.5 -15t125.5 -46l82 114q15 23 28 31t31 8t29.5 -12.5t11.5 -32.5q0 -8 -5 -18.5t-17 -28.5l-82 -119q82 -72 123 -178t41 -244q0 -230 -137 -374t-357 -144q-102 0 -172 15.5t-115 48.5l-84 -115q-16 -24 -28 -31.5t-29 -7.5 q-18 0 -30.5 13t-12.5 32q0 8 5 18.5t18 28.5l84 119q-77 68 -119.5 175t-42.5 235zM236 500q0 -94 21.5 -164.5t66.5 -122.5l446 633q-29 22 -81 35.5t-111 13.5q-159 0 -250.5 -106t-91.5 -289zM393 152q35 -26 81.5 -39t105.5 -13q166 0 259 105t93 293q0 92 -22.5 164 t-65.5 122z" />
<glyph unicode="&#xf9;" horiz-adv-x="1356" d="M-2 940q0 30 19 44.5t57 14.5q14 0 65 -4t88 -4q21 0 55.5 4t47.5 4q38 0 48.5 -15t10.5 -91v-19v-421q0 -192 49.5 61.5t212.5 -412.5q160 0 150.5 289t156.5 172v174q0 93 -13 116.5t-56 23.5h-72q-42 0 -60 14.5t-18 48.5q0 31 17.5 45t54.5 14q16 0 64 -4t79 -4 q24 0 56 4t41 4q38 0 48.5 -15t10.5 -91v-19v-544q0 -139 19 -175t77 -36h68q36 0 51.5 -13t15.5 -43q0 -33 -19 -51t-54 -18q-14 0 -50 3t-59 3q-25 0 -66.5 -3t-56.5 -3q-37 0 -51 16t-14 70v76q-75 -96 -154.5 -136t-189.5 -40q-207 0 -300.5 101.5t-93.5 332.5v323 q0 94 -13.5 117t-59.5 23h-78q-45 0 -64.5 14.5t-19.5 48.5zM457 1419q0 33 21.5 56.5t51.5 23.5q46 0 147 -179q-18 95 -16 93l162 -162q8 -7 21 -21q57 -56 57 -65t-10.5 -16.5t-24.5 -7.5q-26 0 -103 47q-2 1 -3 2l-190 116q-6 4 -16 10q-97 58 -97 103z" />
<glyph unicode="&#xfa;" horiz-adv-x="1356" d="M-2 940q0 30 19 44.5t57 14.5q14 0 65 -4t88 -4q21 0 55.5 4t47.5 4q38 0 48.5 -15t10.5 -91v-19v-421q0 -192 49.5 61.5t212.5 -412.5q160 0 150.5 289t156.5 172v174q0 93 -13 116.5t-56 23.5h-72q-42 0 -60 14.5t-18 48.5q0 31 17.5 45t54.5 14q16 0 64 -4t79 -4 q24 0 56 4t41 4q38 0 48.5 -15t10.5 -91v-19v-544q0 -139 19 -175t77 -36h68q36 0 51.5 -13t15.5 -43q0 -33 -19 -51t-54 -18q-14 0 -50 3t-59 3q-25 0 -66.5 -3t-56.5 -3q-37 0 -51 16t-14 70v76q-75 -96 -154.5 -136t-189.5 -40q-207 0 -300.5 101.5t-93.5 332.5v323 q0 94 -13.5 117t-59.5 23h-78q-45 0 -64.5 14.5t-19.5 48.5zM463 1159q0 9 33 43l43 43l159 168q48 52 76.5 70t56.5 18q31 0 52.5 -22.5t21.5 -55.5q0 -48 -108 -115l-2 -1l-193 -121l-11 -7q-71 -44 -93 -44q-14 0 -24.5 7.5t-10.5 16.5z" />
<glyph unicode="&#xfb;" horiz-adv-x="1356" d="M-2 940q0 30 19 44.5t57 14.5q14 0 65 -4t88 -4q21 0 55.5 4t47.5 4q38 0 48.5 -15t10.5 -91v-19v-421q0 -192 49.5 61.5t212.5 -412.5q160 0 150.5 289t156.5 172v174q0 93 -13 116.5t-56 23.5h-72q-42 0 -60 14.5t-18 48.5q0 31 17.5 45t54.5 14q16 0 64 -4t79 -4 q24 0 56 4t41 4q38 0 48.5 -15t10.5 -91v-19v-544q0 -139 19 -175t77 -36h68q36 0 51.5 -13t15.5 -43q0 -33 -19 -51t-54 -18q-14 0 -50 3t-59 3q-25 0 -66.5 -3t-56.5 -3q-37 0 -51 16t-14 70v76q-75 -96 -154.5 -136t-189.5 -40q-207 0 -300.5 101.5t-93.5 332.5v323 q0 94 -13.5 117t-59.5 23h-78q-45 0 -64.5 14.5t-19.5 48.5zM366 1149q0 23 38 76l10 15l123 178q6 9 14 22q29 47 94 47t94 -47q8 -13 14 -22l121 -179q6 -7 15 -20q35 -48 35 -70q-1 -10 -6.5 -14t-18.5 -5q-41 0 -85 50q-7 7 -11 12l-111 113q-15 14 -27 22t-20 8t-20 -8 t-27 -22l-111 -113q-4 -5 -11 -12q-44 -50 -85 -50q-13 1 -18.5 5t-6.5 14z" />
<glyph unicode="&#xfc;" horiz-adv-x="1356" d="M-2 940q0 30 19 44.5t57 14.5q14 0 65 -4t88 -4q21 0 55.5 4t47.5 4q38 0 48.5 -15t10.5 -91v-19v-421q0 -192 49.5 61.5t212.5 -412.5q160 0 150.5 289t156.5 172v174q0 93 -13 116.5t-56 23.5h-72q-42 0 -60 14.5t-18 48.5q0 31 17.5 45t54.5 14q16 0 64 -4t79 -4 q24 0 56 4t41 4q38 0 48.5 -15t10.5 -91v-19v-544q0 -139 19 -175t77 -36h68q36 0 51.5 -13t15.5 -43q0 -33 -19 -51t-54 -18q-14 0 -50 3t-59 3q-25 0 -66.5 -3t-56.5 -3q-37 0 -51 16t-14 70v76q-75 -96 -154.5 -136t-189.5 -40q-207 0 -300.5 101.5t-93.5 332.5v323 q0 94 -13.5 117t-59.5 23h-78q-45 0 -64.5 14.5t-19.5 48.5zM340 1303q0 45 33.5 78.5t78.5 33.5q47 0 80 -33t33 -79q0 -50 -31.5 -81.5t-81.5 -31.5q-49 0 -80.5 31.5t-31.5 81.5zM725 1303q0 45 33.5 78.5t79.5 33.5t79 -33t33 -79q0 -50 -31.5 -81.5t-80.5 -31.5t-81 32 t-32 81z" />
<glyph unicode="&#xff;" horiz-adv-x="1124" d="M-78 -176q0 61 35.5 99t91.5 38q44 0 72.5 -25.5t28.5 -64.5q0 -44 -45 -85q-11 -11 -11 -13q0 -15 28.5 -27t70.5 -12q57 0 105 21.5t83 62.5q48 55 72 103.5t24 88.5q0 10 -1.5 19t-4.5 18l-268 721q-3 7 -8 20q-33 91 -97 91q-3 0 -27 -3.5t-44 -3.5q-38 0 -60 17 t-22 45q0 31 25 49t69 18q15 0 95.5 -10t146.5 -10q49 0 108.5 10t69.5 10q29 0 46 -17t17 -46q0 -34 -16 -50t-49 -16q-10 0 -33 3.5t-37 3.5q-16 0 -28.5 -15t-12.5 -35q0 -7 2.5 -17.5t5.5 -18.5l221 -609l216 609q4 10 6 19.5t2 16.5q0 22 -12.5 36t-32.5 14 q-12 0 -34 -3.5t-32 -3.5q-34 0 -49.5 16t-15.5 50q0 29 17 46t46 17q10 0 68.5 -10t109.5 -10q62 0 136.5 10t86.5 10q38 0 61 -18t23 -47t-20 -46.5t-55 -17.5q-13 0 -31 3.5t-25 3.5q-61 0 -100 -105l-2 -6l-266 -721q520 -583 99.5 -512.5t-581.5 70.5q-120 0 -194 60 t-74 159zM258 1303q0 45 33.5 78.5t78.5 33.5q47 0 80 -33t33 -79q0 -50 -31.5 -81.5t-81.5 -31.5q-49 0 -80.5 31.5t-31.5 81.5zM643 1303q0 45 33.5 78.5t79.5 33.5t79 -33t33 -79q0 -50 -31.5 -81.5t-80.5 -31.5t-81 32t-32 81z" />
<glyph unicode="&#x152;" horiz-adv-x="2048" d="M80 686q0 321 168.5 513t449.5 192q62 0 198 -12.5t210 -12.5h508q107 0 202 5q13 1 15 1q45 0 70.5 -26t25.5 -72q0 -25 -6 -81t-6 -87q0 -61 6 -136t6 -89q0 -39 -19 -62.5t-50 -23.5q-33 0 -56.5 26t-23.5 64q0 18 6 74.5t6 93.5q0 103 -38.5 139.5t-162.5 36.5h-305 q-69 0 -91 -24.5t-22 -112.5v-230q0 -46 15.5 -61t54.5 -15q176 0 209 25t33 111q0 22 -3 57.5t-3 48.5q0 31 19 50.5t48 19.5q31 0 47.5 -31.5t16.5 -91.5q0 -22 -7.5 -102.5t-7.5 -137.5q0 -58 7.5 -138.5t7.5 -102.5q0 -61 -17 -91t-51 -30q-28 0 -45.5 22t-17.5 58 q0 2 3 16t3 31q0 105 -15.5 139.5t-52.5 34.5q-4 0 -21 1q-88 7 -169 7q-29 0 -41.5 -15.5t-12.5 -58.5v-334q0 -92 23.5 -115.5t89.5 -23.5h330q119 0 160 36.5t41 141.5q0 37 -6.5 93t-6.5 75q0 38 24.5 64t57.5 26q31 0 49.5 -23t18.5 -63q0 -14 -6.5 -89t-6.5 -136 q0 -31 6.5 -87t6.5 -81q0 -46 -26 -73t-71 -27q-2 0 -15 1q-94 7 -202 7h-577q-53 0 -174 -10t-191 -10q-290 0 -453 186.5t-163 519.5zM274 682q0 -287 116.5 -431.5t348.5 -144.5q128 0 193 47.5t65 139.5v651q0 171 -68 243.5t-227 72.5q-201 0 -314.5 -153.5 t-113.5 -424.5z" />
<glyph unicode="&#x153;" horiz-adv-x="1896" d="M76 498q0 244 137.5 387t372.5 143q142 0 244 -50t176 -155q61 100 160 152.5t227 52.5q198 0 318 -123t120 -327q0 -62 -21 -81.5t-84 -19.5h-639v-6q0 -169 84 -270t222 -101q95 0 159 41t103 125l18 42q37 87 78 87q35 0 53.5 -18.5t18.5 -52.5q0 -47 -21.5 -98 t-62.5 -101q-64 -81 -151 -119.5t-206 -38.5q-130 0 -224 51t-152 154q-66 -104 -171 -154.5t-253 -50.5q-233 0 -369.5 143.5t-136.5 387.5zM238 498q0 -190 91.5 -294t258.5 -104q160 0 252 106.5t92 291.5q0 187 -91 292t-253 105q-163 0 -256.5 -106t-93.5 -291z M1098 610h565v13q0 122 -76.5 197t-200.5 75q-120 0 -197.5 -76t-90.5 -209z" />
<glyph unicode="&#x178;" horiz-adv-x="1503" d="M-39 1321q0 31 26.5 53t63.5 22q7 0 115.5 -10t210.5 -10t199 18q15 2 18 2q46 0 70 -20.5t24 -59.5q0 -32 -21.5 -51.5t-56.5 -19.5q-12 0 -44 4t-52 4q-39 0 -56.5 -10t-17.5 -33q0 -17 17 -44l6 -9l361 -501l214 500q3 5 9 14q16 25 16 40q0 23 -17.5 33t-56.5 10 q-20 0 -52 -4t-44 -4q-35 0 -56.5 19.5t-21.5 51.5q0 37 23 58.5t63 21.5q1 0 4 -1t6 -1q4 0 18 -2q95 -16 197 -16t209.5 10t114.5 10q38 0 65 -22t27 -53q0 -30 -21.5 -53t-47.5 -23q-30 0 -59 4t-30 4q104 -717 -2.5 -378t-333.5 -419l-210 80v-274q0 -61 25 -90t77 -29 q28 0 68.5 6t52.5 6q35 0 56.5 -19.5t21.5 -51.5q0 -40 -21.5 -60t-64.5 -20q-4 0 -105.5 10t-199.5 10q-116 -192 -203.5 -106t-93.5 86q-43 0 -64.5 20t-21.5 60q0 32 21 51.5t56 19.5q12 0 52.5 -6t68.5 -6q-11 169 45 113.5t56 5.5v274l-398 617 q-130 -993 -115.5 -446.5t-31.5 546.5l-29.5 -4t-58.5 -4q-27 0 -48.5 23t-21.5 53zM447 1670q0 45 33.5 78.5t78.5 33.5q47 0 80 -33t33 -79q0 -50 -31.5 -81.5t-81.5 -31.5q-49 0 -80.5 31.5t-31.5 81.5zM832 1670q0 45 33.5 78.5t79.5 33.5t79 -33t33 -79 q0 -50 -31.5 -81.5t-80.5 -31.5t-81 32t-32 81z" />
<glyph unicode="&#x2c6;" d="M233 1149q0 23 38 76l10 15l123 178q6 9 14 22q29 47 94 47t94 -47q8 -13 14 -22l121 -179q6 -7 15 -20q35 -48 35 -70q-1 -10 -6.5 -14t-18.5 -5q-41 0 -85 50q-7 7 -11 12l-111 113q-15 14 -27 22t-20 8t-20 -8t-27 -22l-111 -113q-4 -5 -11 -12q-44 -50 -85 -50 q-13 1 -18.5 5t-6.5 14z" />
<glyph unicode="&#x2dc;" d="M229 1210q0 19 15.5 51t46.5 78q24 37 56.5 54.5t76.5 17.5q18 0 34 -2t31 -6l107 -27q11 -3 22.5 -4.5t22.5 -1.5q25 0 43 8t29 23q6 8 13 26q12 31 34 31q14 0 22.5 -9t8.5 -24q0 -17 -18 -57.5t-44 -75.5q-22 -31 -54.5 -47t-72.5 -16q-14 0 -26.5 1.5t-26.5 4.5 l-107 27q-17 4 -30.5 6t-22.5 2q-35 0 -53 -10t-33 -37q-3 -6 -7 -15q-11 -26 -32 -26q-15 0 -25 8t-10 20z" />
<glyph unicode="&#x2000;" horiz-adv-x="967" />
<glyph unicode="&#x2001;" horiz-adv-x="1935" />
<glyph unicode="&#x2002;" horiz-adv-x="967" />
<glyph unicode="&#x2003;" horiz-adv-x="1935" />
<glyph unicode="&#x2004;" horiz-adv-x="645" />
<glyph unicode="&#x2005;" horiz-adv-x="483" />
<glyph unicode="&#x2006;" horiz-adv-x="322" />
<glyph unicode="&#x2007;" horiz-adv-x="322" />
<glyph unicode="&#x2008;" horiz-adv-x="241" />
<glyph unicode="&#x2009;" horiz-adv-x="387" />
<glyph unicode="&#x200a;" horiz-adv-x="107" />
<glyph unicode="&#x2010;" horiz-adv-x="674" d="M56 488q48 63 60 135.5t52 -37.5h364q34 0 49 -17.5t51 -160.5q-36 66 -134 -11t34 41h-364q-33 0 -48.5 17.5t-63.5 32.5z" />
<glyph unicode="&#x2011;" horiz-adv-x="674" d="M56 488q48 63 60 135.5t52 -37.5h364q34 0 49 -17.5t51 -160.5q-36 66 -134 -11t34 41h-364q-33 0 -48.5 17.5t-63.5 32.5z" />
<glyph unicode="&#x2012;" horiz-adv-x="674" d="M56 488q48 63 60 135.5t52 -37.5h364q34 0 49 -17.5t51 -160.5q-36 66 -134 -11t34 41h-364q-33 0 -48.5 17.5t-63.5 32.5z" />
<glyph unicode="&#x2013;" d="M0 455v114h1024v-114h-1024z" />
<glyph unicode="&#x2014;" horiz-adv-x="2048" d="M0 455v114h2048v-114h-2048z" />
<glyph unicode="&#x2018;" horiz-adv-x="645" d="M184 1034q0 56 15.5 109t46.5 106q46 79 84 118.5t67 39.5q20 0 34.5 -13.5t14.5 -31.5q0 -25 -46 -81q-27 -34 -42 -54q-27 -41 -40 -76t-13 -68v-12h21q66 0 100.5 -28.5t34.5 -84.5q0 -57 -34.5 -92t-92.5 -35q-70 0 -110 54t-40 149z" />
<glyph unicode="&#x2019;" horiz-adv-x="645" d="M203 1266q0 57 35.5 93t93.5 36q69 0 108 -54.5t39 -150.5q0 -56 -15 -109t-46 -106q-47 -80 -84 -119t-66 -39q-20 0 -34.5 13.5t-14.5 31.5q0 26 46 82q27 33 42 53q27 40 39 74.5t12 67.5v14h-20q-66 0 -100.5 28.5t-34.5 84.5z" />
<glyph unicode="&#x201a;" horiz-adv-x="645" d="M193 82q0 57 34.5 92t91.5 35q71 0 110.5 -54t39.5 -149q0 -56 -15.5 -110t-45.5 -107q-47 -78 -85 -118t-67 -40q-20 0 -34.5 13.5t-14.5 31.5q0 26 47 83q28 34 43 55q26 39 38.5 73.5t12.5 67.5v14h-20q-66 0 -100.5 29t-34.5 84z" />
<glyph unicode="&#x201c;" horiz-adv-x="1006" d="M172 1034q0 56 15 109t46 106q47 79 85 118.5t67 39.5q20 0 34.5 -13.5t14.5 -31.5q0 -24 -46 -79q-28 -34 -44 -56q-26 -40 -38.5 -74t-12.5 -68v-14h20q66 0 101 -28.5t35 -84.5q0 -57 -35 -92t-92 -35q-71 0 -110.5 54t-39.5 149zM559 1034q0 56 15 109t47 106 q46 80 83 119t66 39q20 0 34.5 -13.5t14.5 -31.5q0 -25 -46 -81q-27 -34 -42 -54q-26 -40 -38.5 -74t-12.5 -68v-14h20q67 0 101.5 -28.5t34.5 -84.5q0 -57 -35.5 -92t-93.5 -35q-70 0 -109 53.5t-39 149.5z" />
<glyph unicode="&#x201d;" horiz-adv-x="1006" d="M190 1266q0 57 36 93t93 36q70 0 109 -54.5t39 -150.5q0 -58 -14.5 -111t-44.5 -104q-47 -78 -85 -118t-67 -40q-20 0 -34.5 13.5t-14.5 31.5q0 26 46 82q27 33 42 53q26 40 38.5 74.5t12.5 67.5v14h-20q-66 0 -101 28.5t-35 84.5zM578 1266q0 58 34.5 93.5t92.5 35.5 q69 0 109 -54.5t40 -150.5q0 -56 -15 -109t-46 -106q-46 -78 -84.5 -118t-67.5 -40q-20 0 -34.5 13.5t-14.5 31.5q0 26 46 80q29 34 44 55q26 40 38.5 74.5t12.5 67.5v14h-20q-66 0 -100.5 28.5t-34.5 84.5z" />
<glyph unicode="&#x201e;" horiz-adv-x="1006" d="M184 82q0 57 35 92t92 35q71 0 110.5 -54t39.5 -149q0 -56 -15.5 -110t-46.5 -107q-46 -78 -84 -118t-67 -40q-20 0 -34.5 13.5t-14.5 31.5q0 26 47 83q28 34 43 55q26 39 38.5 73.5t12.5 67.5v14h-21q-66 0 -100.5 29t-34.5 84zM569 82q0 57 35.5 92t93.5 35 q70 0 109 -53.5t39 -149.5q0 -58 -15 -112t-45 -105q-46 -78 -84 -118t-67 -40q-20 0 -34.5 13.5t-14.5 31.5q0 27 47 85q27 33 41 53q26 39 38.5 73.5t12.5 67.5v14h-20q-67 0 -101.5 29t-34.5 84z" />
<glyph unicode="&#x2022;" horiz-adv-x="1208" d="M307 762q0 123 87 209t210 86q122 0 208.5 -86.5t86.5 -208.5t-87.5 -209.5t-209.5 -87.5q-123 0 -209 87t-86 210z" />
<glyph unicode="&#x2026;" horiz-adv-x="2048" d="M217 92q17 52 43.5 87.5t79.5 35.5q14 -79 69 -75t55 -48q0 -50 -36.5 -86.5t-87.5 -36.5q-26 79 -74.5 75t-48.5 48zM899 92q17 52 43.5 87.5t79.5 35.5q14 -79 69 -75t55 -48q0 -50 -36.5 -86.5t-87.5 -36.5q-26 79 -74.5 75t-48.5 48zM1583 92q17 52 43.5 87.5 t79.5 35.5q14 -79 69 -75t55 -48q0 -50 -36.5 -86.5t-87.5 -36.5q-26 79 -74.5 75t-48.5 48z" />
<glyph unicode="&#x202f;" horiz-adv-x="387" />
<glyph unicode="&#x2039;" horiz-adv-x="621" d="M100 512q0 6 3.5 15t8.5 15l232 279q15 19 30 26t48 7q31 0 45 -10t14 -31q0 -23 -31 -62q-6 -7 -10 -12l-152 -191q-7 -8 -11.5 -18.5t-4.5 -17.5q0 -6 4.5 -15t12.5 -20l151 -192q4 -5 10 -12q31 -39 31 -62q0 -21 -13.5 -30t-45.5 -9q-36 0 -50 6.5t-28 24.5l-231 280 q-6 8 -9.5 15.5t-3.5 13.5z" />
<glyph unicode="&#x203a;" horiz-adv-x="621" d="M145 211q0 21 31 58l12 15l150 193q8 10 12 19.5t4 17.5q0 6 -4 15t-12 20l-150 191l-12 15q-31 37 -31 58t14.5 31t45.5 10q34 0 49.5 -7t30.5 -26l229 -278q7 -8 10.5 -16.5t3.5 -14.5t-3.5 -13t-10.5 -16l-230 -281q-14 -17 -28 -23.5t-51 -6.5q-32 0 -46 9t-14 30z " />
<glyph unicode="&#x205f;" horiz-adv-x="483" />
<glyph unicode="&#x20ac;" horiz-adv-x="1241" d="M86 424l207 205q-44 58 -66 122t-22 134q0 69 22 133.5t66 122.5l-207 205l72 73l207 -207q60 46 122.5 68.5t133.5 22.5t135.5 -22.5t124.5 -68.5l204 207l72 -73l-205 -205q43 -57 64.5 -121t21.5 -135t-21.5 -135.5t-64.5 -120.5l205 -205l-72 -74l-204 207 q-57 -44 -121.5 -66t-138.5 -22t-136.5 21.5t-119.5 66.5l-207 -207zM309 887q0 -131 91.5 -223.5t222.5 -92.5q129 0 221 93t92 223q0 129 -91.5 221t-221.5 92t-222 -92t-92 -221z" />
<glyph unicode="&#x2122;" horiz-adv-x="1706" d="M254 1389v67h440v-67h-172v-467h-94v467h-174zM819 922v534h129l160 -405l149 405h132v-534h-82v458l-172 -458h-54l-180 458v-458h-82z" />
<glyph unicode="&#xfb01;" horiz-adv-x="1327" d="M10 51q0 35 22 52.5t64 17.5q11 0 30.5 -3t27.5 -3q59 0 78.5 21t19.5 120v618q-54 -1 -112.5 -3.5t-63.5 -2.5q-34 0 -50 14t-16 44q0 31 22 50t58 19q4 0 49 -4t86 -4h27q0 6 -1 19t-1 20q0 169 86 256.5t252 87.5q115 0 184.5 -50.5t69.5 -133.5q0 -45 -25 -72 t-67 -27q-44 0 -69.5 20t-25.5 54q0 12 4.5 33.5t4.5 30.5q0 14 -19 21t-59 7q-91 0 -138 -55t-47 -162q0 -20 0.5 -30t2.5 -19q67 0 140 7q17 1 21 1q39 0 60.5 -17.5t21.5 -49.5q0 -31 -16 -45.5t-51 -14.5q-4 0 -21 1q-78 5 -151 5v-618q0 -94 15 -117.5t62 -23.5 q4 0 31 3t49 3q46 0 67 -16.5t21 -51.5q0 -30 -20.5 -46.5t-59.5 -16.5q-7 0 -93 8t-165 8q-67 0 -141 -8t-82 -8q-43 0 -62.5 14.5t-19.5 46.5zM680 932q0 27 21 45t53 18q5 0 44.5 -4t73.5 -4q58 0 120 7q14 1 18 1q42 0 55.5 -14.5t13.5 -67.5v-657q0 -91 18 -116t79 -25 q12 0 29.5 3t23.5 3q42 0 64 -17.5t22 -52.5q0 -33 -18.5 -47t-61.5 -14q-12 0 -84 8t-131 8q-111 0 -225 -13q-25 -3 -31 -3q-43 0 -62.5 14.5t-19.5 46.5q0 35 22 52.5t64 17.5q10 0 29 -3t28 -3q62 0 80.5 24t18.5 117v408q0 141 -20.5 175.5t-82.5 34.5h-73 q-39 0 -53.5 13t-14.5 45zM879 1194q0 47 30.5 79t77.5 32q46 0 78.5 -32.5t32.5 -78.5q0 -44 -33 -75.5t-78 -31.5q-46 0 -77 30.5t-31 76.5z" />
<glyph unicode="&#xfb02;" horiz-adv-x="1325" d="M10 51q0 35 22 52.5t64 17.5q11 0 30.5 -2t27.5 -2q60 0 79 20.5t19 118.5v618q-54 -1 -112.5 -3.5t-63.5 -2.5q-34 0 -50 14t-16 44q0 31 22 50t58 19q4 0 49 -5t86 -5h27q0 7 -1 21.5t-1 21.5q0 163 82.5 251.5t234.5 88.5q17 0 97 -4t143 -4t130 4t69 4 q42 0 56.5 -14.5t14.5 -69.5v-1028q0 -92 18 -115.5t79 -23.5q12 0 30.5 2t24.5 2q42 0 63 -17.5t21 -52.5q0 -33 -18.5 -47t-61.5 -14q-12 0 -84 8t-131 8q-111 0 -225 -13q-25 -3 -31 -3q-43 0 -61.5 14t-18.5 47q0 35 21 52.5t63 17.5q10 0 29 -2t28 -2q62 0 80.5 23.5 t18.5 115.5v813q0 116 -19.5 146t-70.5 32q5 -15 7.5 -30t2.5 -31q0 -45 -25 -72t-67 -27q-44 0 -69.5 20t-25.5 54q0 12 4.5 33.5t4.5 30.5q0 14 -19 21t-59 7q-91 0 -138 -55t-47 -162q0 -20 0.5 -30.5t2.5 -20.5q67 0 139 8q18 2 22 2q39 0 60.5 -17.5t21.5 -49.5 q0 -31 -16 -45.5t-51 -14.5q-4 0 -21 1q-78 5 -151 5v-618q0 -93 14.5 -116t62.5 -23q4 0 31 2t49 2q46 0 67 -16.5t21 -51.5q0 -30 -20.5 -46.5t-59.5 -16.5q-7 0 -93 8t-165 8q-67 0 -141 -8t-82 -8q-43 0 -62.5 14.5t-19.5 46.5z" />
</font>
</defs>
</svg>
